Results 1 to 1 of 1
  1. #1
    dR Rockers www.desirulez.net
    Join Date
    Sep 2011
    Posts
    248

    T

    Post Pet Sematary (1989) DVDRip Dual Audio [Eng-Hindi]

    Follow us on Social Media








    Pet Sematary (1989) DVDRip Dual Audio [Eng-Hindi]





    Genre: Drama | Fantasy | Horror | Mystery | Thriller
    Format: Matroska
    File size: 789mb
    Duration: 1h 41mn
    Movie name: Pet Sematary (1989) DVDRip Dual Audio [Eng-Hindi]~{Destiny}
    Language: English and Hindi
    Ripper: Destiny




    Budget: $11,500,000 (estimated)
    Opening Weekend: $12,046,179 (USA) (21 April 1989) (1585 Screens)
    Gross: $57,469,179 (USA)



    Jurtjyrkogården (1989) - IMDb



    Video
    ID : 1
    Format : MPEG-4 Visual
    Format profile : [email protected]
    Format settings, BVOP : No
    Format settings, QPel : No
    Format settings, GMC : No warppoints
    Format settings, Matrix : Default (H.263)
    Codec ID : XVID
    Codec ID/Hint : XviD
    Duration : 1h 42mn
    Bit rate : 797 Kbps
    Width : 512 pixels
    Height : 288 pixels
    Display aspect ratio : 16:9
    Frame rate : 23.976 fps
    Color space : YUV
    Chroma subsampling : 4:2:0
    Bit depth : 8 bits
    Scan type : Progressive
    Compression mode : Lossy
    Bits/(Pixel*Frame) : 0.226
    Stream size : 586 MiB (74%)
    Title : Destiny




    Audio #1
    ID : 2
    Format : MPEG Audio
    Format version : Version 1
    Format profile : Layer 3
    Mode : Joint stereo
    Mode extension : MS Stereo
    Codec ID : A_MPEG/L3
    Codec ID/Hint : MP3
    Duration : 1h 42mn
    Bit rate mode : Constant
    Bit rate : 128 Kbps
    Channel(s) : 2 channels
    Sampling rate : 48.0 KHz
    Compression mode : Lossy
    Stream size : 94.1 MiB (12%)
    Title : Destiny
    Writing library : LAME3.97
    Language : English




    Audio #2
    ID : 3
    Format : MPEG Audio
    Format version : Version 1
    Format profile : Layer 3
    Mode : Joint stereo
    Mode extension : MS Stereo
    Codec ID : A_MPEG/L3
    Codec ID/Hint : MP3
    Duration : 1h 42mn
    Bit rate mode : Constant
    Bit rate : 128 Kbps
    Channel(s) : 2 channels
    Sampling rate : 44.1 KHz
    Compression mode : Lossy
    Stream size : 94.1 MiB (12%)
    Title : Destiny
    Writing library : LAME3.97
    Language : Hindi










    Code:
    http://depositfiles.com/files/2gocokohk

    Code:
    http://www.fileserve.com/file/TC7TJ5Q/Pet Sematary (1989) DVDRip Dual Audio [Eng-Hindi]~{Destiny}.mkv

    Code:
    http://www.filesonic.com/file/2644520351

    Code:
    http://www.wupload.com/file/512475271



 

 

Posting Permissions

  • You may not post new threads
  • You may not post replies
  • You may not post attachments
  • You may not edit your posts
  •