Results 1 to 1 of 1
  1. #1
    dR Rockers www.desirulez.net
    Join Date
    Apr 2011
    Location
    desirulez.net
    Posts
    192

    T

    Thumbs down Romeo title song (bengali) (2011) hq full song

    Follow us on Social Media







    ROMEO TITLE SONG (BENGALI) (2011) HQ




    Code:
    General
    Complete name                    : C:\Users\Administrator\Desktop\ROMEO TITLE SONG (BENGALI) (2011) HQ - YouTube.flv
    Format                           : Flash Video
    File size                        : 20.2 MiB
    Duration                         : 3mn 46s
    Overall bit rate                 : 749 Kbps
    Video
    Format                           : AVC
    Format/Info                      : Advanced Video Codec
    Format profile                   : [email protected]
    Format settings, CABAC           : Yes
    Format settings, ReFrames        : 3 frames
    Codec ID                         : 7
    Duration                         : 3mn 46s
    Bit rate                         : 615 Kbps
    Width                            : 640 pixels
    Height                           : 256 pixels
    Display aspect ratio             : 2.500
    Frame rate mode                  : Constant
    Frame rate                       : 24.000 fps
    Color space                      : YUV
    Chroma subsampling               : 4:2:0
    Bit depth                        : 8 bits
    Scan type                        : Progressive
    Bits/(Pixel*Frame)               : 0.156
    Stream size                      : 16.6 MiB (82%)
    Audio
    Format                           : AAC
    Format/Info                      : Advanced Audio Codec
    Format profile                   : LC
    Codec ID                         : 10
    Duration                         : 3mn 46s
    Bit rate                         : 126 Kbps
    Channel(s)                       : 2 channels
    Channel positions                : Front: L R
    Sampling rate                    : 44.1 KHz
    Compression mode                 : Lossy
    Stream size                      : 3.40 MiB (17%)
    DOWNLOAD LINK SINGLE
    Code:
    http://www.fileserve.com/file/apagaje/ROMEO_TITLE_SONG_(BENGALI)_(2011)_HQ__FULL_SONG.Ex.By.MMB.flv
    
    http://www.filesonic.com/file/2660554791/ROMEO TITLE SONG (BENGALI) (2011) HQ  FULL SONG.Ex.By.MMB.flv
    
    http://hotfile.com/dl/132770316/91dbfe7/ROMEO_TITLE_SONG_(BENGALI)_(2011)_HQ_FULL_SONG.Ex.By.MMB.flv.html

 

 

Posting Permissions

  • You may not post new threads
  • You may not post replies
  • You may not post attachments
  • You may not edit your posts
  •