Results 1 to 1 of 1
  1. #1
    dR Rockers www.desirulez.net
    Join Date
    Aug 2011
    Posts
    5,859

    Default Tumko Na Bhool Paayenge (2002) DvD - 2CD - Rip - Xvid - Esub - 6 channels ( XMR )

    Follow us on Social Media









    Tumko Na Bhool Paayenge (2002)











    Code:
    Ripper                           : Rahul
    Complete name                    : Tumko Na Bhool Paayenge (2002)
    Format                           : AVI
    Format/Info                      : Audio Video Interleave
    File size                        : 1.37 GiB
    Duration                         : 2h 47mn
    Overall bit rate                 : 1 167 Kbps
    Writing application              : VirtualDubMod 1.5.10.3 | 
    
    
    Video
    ID                               : 0
    Format                           : MPEG-4 Visual
    Format profile                   : Advanced [email protected]
    Format settings, BVOP            : 2
    Format settings, QPel            : Yes
    Format settings, GMC             : No warppoints
    Format settings, Matrix          : Default (MPEG)
    Codec ID                         : XVID
    Codec ID/Hint                    : XviD
    Duration                         : 2h 47mn
    Bit rate                         : 713 Kbps
    Width                            : 640 pixels
    Height                           : 288 pixels
    Display aspect ratio             : 2.222
    Frame rate                       : 23.976 fps
    Color space                      : YUV
    Chroma subsampling               : 4:2:0
    Bit depth                        : 8 bits
    Scan type                        : Progressive
    Compression mode                 : Lossy
    Bits/(Pixel*Frame)               : 0.161
    Stream size                      : 856 MiB (61%)
    Writing library                  : XviD 1.2.1 (UTC 2008-12-04)
    
    
    Audio
    ID                               : 1
    Format                           : AC-3
    Format/Info                      : Audio Coding 3
    Mode extension                   : CM (complete main)
    Codec ID                         : 2000
    Duration                         : 2h 46mn
    Bit rate mode                    : Constant
    Bit rate                         : 448 Kbps
    Channel(s)                       : 6 channels
    Channel positions                : Front: L C R, Side: L R, LFE
    Sampling rate                    : 48.0 KHz
    Bit depth                        : 16 bits
    Compression mode                 : Lossy
    Stream size                      : 533 MiB (38%)
    Alignment                        : Split accross interleaves
    Interleave, duration             : 42 ms (1.01 video frame)
    Interleave, preload duration     : 500 ms
    Synopsis





    Cast





















    SINGLE LINK
    Code:
    http://www.fileserve.com/file/TzKugan/Tumko Na Bhool Paayenge (2002) DvD - 2CD - Rip - Xvid - Esub - 6 channels ( XMR ).avi
    Code:
    http://www.filesonic.com/file/2641904281/Tumko Na Bhool Paayenge (2002) DvD - 2CD - Rip - Xvid - Esub - 6 channels ( XMR ).avi
    Code:
    http://www.fileserve.com/file/ywnX2Yh/Tumko Na Bhool Paayenge (2002) DvD - 2CD - Rip - Xvid - Esub - 6 channels ( XMR ).avi.001
    http://www.fileserve.com/file/4t7cS6e/Tumko Na Bhool Paayenge (2002) DvD - 2CD - Rip - Xvid - Esub - 6 channels ( XMR ).avi.002
    http://www.fileserve.com/file/jDfX78W/Tumko Na Bhool Paayenge (2002) DvD - 2CD - Rip - Xvid - Esub - 6 channels ( XMR ).avi.003
    http://www.fileserve.com/file/XAcjtQj/Tumko Na Bhool Paayenge (2002) DvD - 2CD - Rip - Xvid - Esub - 6 channels ( XMR ).avi.004
    http://www.fileserve.com/file/rbbPJUS/Tumko Na Bhool Paayenge (2002) DvD - 2CD - Rip - Xvid - Esub - 6 channels ( XMR ).idx
    http://www.fileserve.com/file/8kzruDs/Tumko Na Bhool Paayenge (2002) DvD - 2CD - Rip - Xvid - Esub - 6 channels ( XMR ).sub
    
    
    http://www.filesonic.com/file/2641885991/Tumko Na Bhool Paayenge (2002) DvD - 2CD - Rip - Xvid - Esub - 6 channels ( XMR ).avi.001
    http://www.filesonic.com/file/2641889511/Tumko Na Bhool Paayenge (2002) DvD - 2CD - Rip - Xvid - Esub - 6 channels ( XMR ).avi.002
    http://www.filesonic.com/file/2641885691/Tumko Na Bhool Paayenge (2002) DvD - 2CD - Rip - Xvid - Esub - 6 channels ( XMR ).avi.003
    http://www.filesonic.com/file/2641885671/Tumko Na Bhool Paayenge (2002) DvD - 2CD - Rip - Xvid - Esub - 6 channels ( XMR ).avi.004
    http://www.filesonic.com/file/2641885681/Tumko Na Bhool Paayenge (2002) DvD - 2CD - Rip - Xvid - Esub - 6 channels ( XMR ).idx
    http://www.filesonic.com/file/2641885711/Tumko Na Bhool Paayenge (2002) DvD - 2CD - Rip - Xvid - Esub - 6 channels ( XMR ).sub
    450MB LINKS

 

 

Posting Permissions

  • You may not post new threads
  • You may not post replies
  • You may not post attachments
  • You may not edit your posts
  •