Results 1 to 1 of 1
  1. #1
    dR Dazzler www.desirulez.net
    Join Date
    Mar 2009
    Posts
    1,518

    T

    Smile Jai Veeru 2009 - 1/3 CD DVD RIP - E-SUB - AC3

    Follow us on Social Media








    Code:
    Format                           : AVI
    Format/Info                      : Audio Video Interleave
    Format profile                   : OpenDML
    File size                        : 1.45 GiB
    Duration                         : 2h 0mn
    Overall bit rate                 : 1 722 Kbps
    
    
    Video
    Format                           : MPEG-4 Visual
    Format profile                   : Streaming [email protected]
    Format settings, BVOP            : Yes
    Format settings, QPel            : No
    Format settings, GMC             : No warppoints
    Format settings, Matrix          : Default
    Codec ID                         : XVID
    Codec ID/Hint                    : XviD
    Duration                         : 2h 0mn
    Bit rate                         : 1 269 Kbps
    Width                            : 720 pixels
    Height                           : 304 pixels
    Display aspect ratio             : 2.35
    Frame rate                       : 23.976 fps
    Resolution                       : 24 bits
    Colorimetry                      : 4:2:0
    Scan type                        : Progressive
    Bits/(Pixel*Frame)               : 0.242
    Stream size                      : 1.07 GiB (74%)
    
    
    Audio
    Format                           : AC-3
    Format/Info                      : Audio Coding 3
    Codec ID                         : 2000
    Duration                         : 2h 0mn
    Bit rate mode                    : Constant
    Bit rate                         : 448 Kbps
    Channel(s)                       : 6 channels
    Channel positions                : Front: L C R, Surround: L R, LFE
    Sampling rate                    : 48.0 KHz
    Stream size                      : 386 MiB (26%)
    Alignment                        : Aligned on interleaves
    Interleave, duration             : 64 ms (1.53 video frames)
    Interleave, preload duration     : 192 ms
    Source:ictv dvd











    Code:
    http://rapidshare.com/files/210616293/Jai_Veeru_2009_DVD_RIP_E-SUB_AC3_by_Arvendu_Team_Sparkar.avi.001
    http://rapidshare.com/files/210617234/Jai_Veeru_2009_DVD_RIP_E-SUB_AC3_by_Arvendu_Team_Sparkar.avi.002
    http://rapidshare.com/files/210618441/Jai_Veeru_2009_DVD_RIP_E-SUB_AC3_by_Arvendu_Team_Sparkar.avi.003
    http://rapidshare.com/files/210617943/Jai_Veeru_2009_DVD_RIP_E-SUB_AC3_by_Arvendu_Team_Sparkar.avi.004
    http://rapidshare.com/files/210618083/Jai_Veeru_2009_DVD_RIP_E-SUB_AC3_by_Arvendu_Team_Sparkar.avi.005
    http://rapidshare.com/files/210619015/Jai_Veeru_2009_DVD_RIP_E-SUB_AC3_by_Arvendu_Team_Sparkar.avi.006
    http://rapidshare.com/files/210619175/Jai_Veeru_2009_DVD_RIP_E-SUB_AC3_by_Arvendu_Team_Sparkar.avi.007
    http://rapidshare.com/files/210618616/Jai_Veeru_2009_DVD_RIP_E-SUB_AC3_by_Arvendu_Team_Sparkar.avi.008
    http://rapidshare.com/files/210620858/Jai_Veeru_2009_DVD_RIP_E-SUB_AC3_by_Arvendu_Team_Sparkar.srt


 

 

Posting Permissions

  • You may not post new threads
  • You may not post replies
  • You may not post attachments
  • You may not edit your posts
  •