Results 1 to 1 of 1
  1. #1
    dR Rockers www.desirulez.net
    Join Date
    Aug 2011
    Posts
    5,859

    T

    Default Mere Brother Ki Dulhan (2011) - Music Videos - Untouched - DVD9 - NTSC-=DrC-=

    Follow us on Social Media












    Mere Brother Ki Dulhan (2011) - Music Videos - Untouched - DVD9 - NTSC-=DrC-=
























    Code:
    Movie        : Mere Brother Ki Dulhan (2011)
    Imdb         : http://www.imdb.com/title/tt0833476/
    Trailer      : http://www.youtube.com/watch?v=iSwvdvRx8cg&feature=player_embedded
    Distributor  : 
    Language     : Hindi | English (a few lines)
    Source       : DVD9 NTSC @ *DrC Home Entertainment (Thanks)
    Ripper       : Ibraram @ DrC
    Size         :  GB
    Container    : Vobs Untouched
    Release Date : 9 September 2011 (USA)
    Genre        : Comedy | Drama | Romance   
    Director     : Ali Abbas Zafar
    Writers      : Ali Abbas Zafar
    Stars        : Imran Khan, Katrina Kaif and Ali Zafar
    User Rating  : 6.1/10 from 792 users
    Ripper Note:


    Njoy DrC Release.

    Always Seed After Complete Enjoy.




    Storyline


    Code:
    London-based Luv Agnihotri decides to end his bachelorhood 
    and asks his Bollywood film-maker brother, Kush, to find a 
    bride for him - much to the displeasure of his Dehradun-based 
    father. Kush accordingly meets and interviews a variety 
    of women, and finally selects Delhi-based Dimple Dixit, 
    a woman he had known before, to be the perfect match. 
    Dimple and Luv meet on-line, are attracted to each other, 
    and the former travels to India where the two families 
    get the couple formally engaged. It is then Dimple 
    decides that she prefers Kush. Watch as things spiral 
    out of control when she insists that Kush must elope with her.

    Technical info:

    Code:
    Format : MPEG-PS Overall bit rate : 7 653 Kbps Video ID : 224 (0xE0) Format : MPEG Video Format version : Version 2 Format profile : [email protected] Format settings, BVOP : Yes Format settings, Matrix : Default Format settings, GOP : M=2, N=13 Bit rate mode : Variable Bit rate : 7 117 Kbps Maximum bit rate : 8 600 Kbps Width : 720 pixels Height : 576 pixels Display aspect ratio : 2.35:1 Frame rate : 25.000 fps Standard : PAL Color space : YUV Chroma subsampling : 4:2:0 Bit depth : 8 bits Scan type : Interlaced Scan order : Top Field First Compression mode : Lossy Bits/(Pixel*Frame) : 0.686 Stream size : 153 MiB (93%) Audio ID : 189 (0xBD)-128 (0x80) Format : AC-3 Format/Info : Audio Coding 3 Mode extension : CM (complete main) Muxing mode : DVD-Video Bit rate mode : Constant Bit rate : 384 Kbps Channel(s) : 6 channels Channel positions : Front: L C R, Side: L R, LFE Sampling rate : 48.0 KHz Bit depth : 16 bits Compression mode : Lossy Delay relative to video : -232ms Stream size : 8.23 MiB (5%) Text #1 ID : 189 (0xBD)-32 (0x20) Format : RLE Format/Info : Run-length encoding Muxing mode : DVD-Video Text #2 ID : 189 (0xBD)-33 (0x21) Format : RLE Format/Info : Run-length encoding Muxing mode : DVD-Video

    Track List:

    Code:
    01 - Mere Brother Ki Dulhan -Mere Brother Ki Dulhan (2011) - Music Videos - Untouched - DVD9 - NTSC-=DrC-= 02 - Dhunki -Mere Brother Ki Dulhan (2011) - Music Videos - Untouched - DVD9 - NTSC-=DrC-= 03 - Choomantar -Mere Brother Ki Dulhan (2011) - Music Videos - Untouched - DVD9 - NTSC-=DrC-= 04 - Isk Risk -Mere Brother Ki Dulhan (2011) - Music Videos - Untouched - DVD9 - NTSC-=DrC-= 05 - Madhubala -Mere Brother Ki Dulhan (2011) - Music Videos - Untouched - DVD9 - NTSC-=DrC-= 06 - Do Dhaari Talwar -Mere Brother Ki Dulhan (2011) - Music Videos - Untouched - DVD9 - NTSC-=DrC-=



















    Code:
    http://www.fileserve.com/file/Pr7En6u/01 - Mere Brother Ki Dulhan -Mere Brother Ki Dulhan (2011) - Music Videos - Untouched - DVD9 - NTSC - Ibraram.VOB
    http://www.fileserve.com/file/uYfHkd6/02 - Dhunki -Mere Brother Ki Dulhan (2011) - Music Videos - Untouched - DVD9 - NTSC - Ibraram.VOB
    http://www.fileserve.com/file/YTRgmxc/03 - Choomantar -Mere Brother Ki Dulhan (2011) - Music Videos - Untouched - DVD9 - NTSC - Ibraram.VOB
    http://www.fileserve.com/file/Yf6BQFz/04 - Isk Risk -Mere Brother Ki Dulhan (2011) - Music Videos - Untouched - DVD9 - NTSC - Ibraram.VOB
    http://www.fileserve.com/file/9FC8p2Q/05 - Madhubala -Mere Brother Ki Dulhan (2011) - Music Videos - Untouched - DVD9 - NTSC - Ibraram.VOB
    http://www.fileserve.com/file/3sbYPQ2/06 - Do Dhaari Talwar -Mere Brother Ki Dulhan (2011) - Music Videos - Untouched - DVD9 - NTSC - Ibraram.VOB
    Code:
    http://www.filesonic.com/file/2586318481/01 - Mere Brother Ki Dulhan -Mere Brother Ki Dulhan (2011) - Music Videos - Untouched - DVD9 - NTSC - Ibraram.VOB
    http://www.filesonic.com/file/2586318521/02 - Dhunki -Mere Brother Ki Dulhan (2011) - Music Videos - Untouched - DVD9 - NTSC - Ibraram.VOB
    http://www.filesonic.com/file/2586319021/03 - Choomantar -Mere Brother Ki Dulhan (2011) - Music Videos - Untouched - DVD9 - NTSC - Ibraram.VOB
    http://www.filesonic.com/file/2586322541/04 - Isk Risk -Mere Brother Ki Dulhan (2011) - Music Videos - Untouched - DVD9 - NTSC - Ibraram.VOB
    http://www.filesonic.com/file/2586305481/05 - Madhubala -Mere Brother Ki Dulhan (2011) - Music Videos - Untouched - DVD9 - NTSC - Ibraram.VOB
    http://www.filesonic.com/file/2586305461/06 - Do Dhaari Talwar -Mere Brother Ki Dulhan (2011) - Music Videos - Untouched - DVD9 - NTSC - Ibraram.VOB

    Code:
    http://www.wupload.com/file/428636980/01 - Mere Brother Ki Dulhan -Mere Brother Ki Dulhan (2011) - Music Videos - Untouched - DVD9 - NTSC - Ibraram.VOB
    http://www.wupload.com/file/428632531/02 - Dhunki -Mere Brother Ki Dulhan (2011) - Music Videos - Untouched - DVD9 - NTSC - Ibraram.VOB
    http://www.wupload.com/file/428632498/03 - Choomantar -Mere Brother Ki Dulhan (2011) - Music Videos - Untouched - DVD9 - NTSC - Ibraram.VOB
    http://www.wupload.com/file/428632528/04 - Isk Risk -Mere Brother Ki Dulhan (2011) - Music Videos - Untouched - DVD9 - NTSC - Ibraram.VOB
    http://www.wupload.com/file/428601070/05 - Madhubala -Mere Brother Ki Dulhan (2011) - Music Videos - Untouched - DVD9 - NTSC - Ibraram.VOB
    http://www.wupload.com/file/428601071/06 - Do Dhaari Talwar -Mere Brother Ki Dulhan (2011) - Music Videos - Untouched - DVD9 - NTSC - Ibraram.VOB

 

 

Posting Permissions

  • You may not post new threads
  • You may not post replies
  • You may not post attachments
  • You may not edit your posts
  •