Results 1 to 1 of 1
  1. #1
    dR Rockers www.desirulez.net
    Join Date
    Aug 2011
    Posts
    5,859

    T

    Default The Fugitive (1993) | m-HD | 480p | AC3 | Hindi | BHATTI87

    Follow us on Social Media







    The Fugitive (1993) | m-HD | 480p | AC3 | Hindi | BHATTI87













    Code:
    The Fugitive (1993) | m-HD | 480p | AC3 | Hindi | BHATTI87
    
    General
    Unique ID                            	: 176518768205319483611662283743020266101 (0x84CC4734662E1378BEB52F871DC93275)
    Complete name                        	: H:\***********\The Fugitive (1993)  m-HD  480p  AC3  Hindi  BHATTI87\The Fugitive (1993)  m-HD  480p  AC3  Hindi  BHATTI87.mkv
    Format                               	: Matroska
    Format version                       	: Version 2
    File size                            	: 697 MiB
    Duration                             	: 2h 10mn
    Overall bit rate                     	: 749 Kbps
    Encoded date                         	: UTC 2011-09-29 20:19:13
    Writing application                  	: mkvmerge v4.9.1 ('Ich will') built on Jul 11 2011 23:53:15
    Writing library                      	: libebml v1.2.1 + libmatroska v1.1.1
    
    Video
    ID                                   	: 1
    Format                               	: AVC
    Format/Info                          	: Advanced Video Codec
    Format profile                       	: [email protected]
    Format settings, CABAC               	: Yes
    Format settings, ReFrames            	: 5 frames
    Codec ID                             	: V_MPEG4/ISO/AVC
    Duration                             	: 2h 10mn
    Bit rate                             	: 619 Kbps
    Width                                	: 848 pixels
    Height                               	: 368 pixels
    Display aspect ratio                 	: 2.35:1
    Frame rate                           	: 23.976 fps
    Color space                          	: YUV
    Chroma subsampling                   	: 4:2:0
    Bit depth                            	: 8 bits
    Scan type                            	: Progressive
    Bits/(Pixel*Frame)                   	: 0.083
    Stream size                          	: 564 MiB (81%)
    Writing library                      	: x264 core 116 r2074 2641b9e
    Encoding settings                    	: cabac=1 / ref=5 / deblock=1:-1:-1 / analyse=0x3:0x113 / me=umh / subme=8 / psy=1 / psy_rd=1.00:0.00 / mixed_ref=1 / me_range=24 / chroma_me=1 / trellis=2 / 8x8dct=1 / cqm=0 / deadzone=21,11 / fast_pskip=1 / chroma_qp_offset=-2 / threads=3 / sliced_threads=0 / nr=0 / decimate=1 / interlaced=0 / bluray_compat=0 / constrained_intra=0 / bframes=3 / b_pyramid=2 / b_adapt=2 / b_bias=0 / direct=3 / weightb=1 / open_gop=0 / weightp=2 / keyint=250 / keyint_min=23 / scenecut=40 / intra_refresh=0 / rc_lookahead=50 / rc=2pass / mbtree=1 / bitrate=619 / ratetol=1.0 / qcomp=0.60 / qpmin=10 / qpmax=69 / qpstep=4 / cplxblur=20.0 / qblur=0.5 / ip_ratio=1.40 / aq=1:1.00
    
    Audio
    ID                                   	: 2
    Format                               	: AC-3
    Format/Info                          	: Audio Coding 3
    Mode extension                       	: CM (complete main)
    Codec ID                             	: A_AC3
    Duration                             	: 2h 10mn
    Bit rate mode                        	: Constant
    Bit rate                             	: 128 Kbps
    Channel(s)                           	: 2 channels
    Channel positions                    	: Front: L R
    Sampling rate                        	: 48.0 KHz
    Bit depth                            	: 16 bits
    Compression mode                     	: Lossy
    Stream size                          	: 119 MiB (17%)


















    Originally Encoded By ......... Harshad In 1.75 Gb
    Re-encoded by ................. BHATTI87 In 700 mb

    Code:
    http://www.fileserve.com/file/CSXFPPk/The_Fugitive_(1993)__m-HD__480p__AC3__Hindi__BHATTI87.mkv
    Code:
    http://www.filesonic.com/file/2268899274/The Fugitive (1993)  m-HD  480p  AC3  Hindi  BHATTI87.mkv


 

 

Posting Permissions

  • You may not post new threads
  • You may not post replies
  • You may not post attachments
  • You may not edit your posts
  •