Results 1 to 1 of 1
  1. #1
    dR Rockers www.desirulez.net
    Join Date
    Aug 2011
    Posts
    5,859

    T

    Default Honeymoon (1992) DvD - 2CD - Rip - AVC - Esub - x264 - 6 channels ( XMR )

    Follow us on Social Media











    Honeymoon (1992)










    Code:
    Ripper                           : Rahul
    Complete name                    : Honeymoon (1992) 
    Format                           : Matroska
    File size                        : 1.36 GiB
    Duration                         : 2h 40mn
    Overall bit rate                 : 1 213 Kbps
    Encoded date                     : UTC 2011-10-04 07:55:15
    
    
    Video
    ID                               : 1
    Format                           : AVC
    Format/Info                      : Advanced Video Codec
    Format profile                   : [email protected]
    Format settings, CABAC           : Yes
    Format settings, ReFrames        : 4 frames
    Muxing mode                      : Header stripping
    Codec ID                         : V_MPEG4/ISO/AVC
    Duration                         : 2h 40mn
    Bit rate                         : 988 Kbps
    Width                            : 656 pixels
    Height                           : 480 pixels
    Display aspect ratio             : 4:3
    Frame rate                       : 23.976 fps
    Color space                      : YUV
    Chroma subsampling               : 4:2:0
    Bit depth                        : 8 bits
    Scan type                        : Progressive
    Bits/(Pixel*Frame)               : 0.131
    Stream size                      : 1.08 GiB (80%)
    Writing library                  : x264 core 116 r2074 2641b9e
    
    
    
    Audio
    ID                               : 2
    Format                           : AC-3
    Format/Info                      : Audio Coding 3
    Mode extension                   : CM (complete main)
    Muxing mode                      : Header stripping
    Codec ID                         : A_AC3
    Duration                         : 2h 40mn
    Bit rate mode                    : Constant
    Bit rate                         : 224 Kbps
    Channel(s)                       : 6 channels
    Channel positions                : Front: L C R, Side: L R, LFE
    Sampling rate                    : 48.0 KHz
    Bit depth                        : 16 bits
    Compression mode                 : Lossy
    Stream size                      : 258 MiB (18%)

    Synopsis





    Cast






















    SINGLE LINK
    Code:
    http://www.filesonic.com/file/2557559441/Honeymoon (1992) DvD - 2CD - Rip - AVC - x264 - 6 channels ( XMR ).mkv
    Code:
    http://www.wupload.com/file/405086260/Honeymoon (1992) DvD - 2CD - Rip - AVC - x264 - 6 channels ( XMR ).mkv
    Code:
    http://www.fileserve.com/file/92VsmeM/Honeymoon (1992) DvD - 2CD - Rip - AVC - x264 - 6 channels ( XMR ).mkv


    450MB LINKS


    Code:
    http://www.filesonic.com/file/2557555621/Honeymoon (1992) DvD - 2CD - Rip - AVC - x264 - 6 channels ( XMR ).mkv.001
    http://www.filesonic.com/file/2557556851/Honeymoon (1992) DvD - 2CD - Rip - AVC - x264 - 6 channels ( XMR ).mkv.002
    http://www.filesonic.com/file/2557556891/Honeymoon (1992) DvD - 2CD - Rip - AVC - x264 - 6 channels ( XMR ).mkv.003
    http://www.filesonic.com/file/2557552981/Honeymoon (1992) DvD - 2CD - Rip - AVC - x264 - 6 channels ( XMR ).mkv.004
    http://www.filesonic.com/file/2557552951/Honeymoon (1992) DvD - 2CD - Rip - AVC - x264 - 6 channels ( XMR ).sub
    
    
    http://www.fileserve.com/file/MZeTgVZ/Honeymoon (1992) DvD - 2CD - Rip - AVC - x264 - 6 channels ( XMR ).mkv.001
    http://www.fileserve.com/file/r65FnVH/Honeymoon (1992) DvD - 2CD - Rip - AVC - x264 - 6 channels ( XMR ).mkv.002
    http://www.fileserve.com/file/47nZyQQ/Honeymoon (1992) DvD - 2CD - Rip - AVC - x264 - 6 channels ( XMR ).mkv.003
    http://www.fileserve.com/file/Av8YmVv/Honeymoon (1992) DvD - 2CD - Rip - AVC - x264 - 6 channels ( XMR ).mkv.004
    http://www.fileserve.com/file/3zutz8W/Honeymoon (1992) DvD - 2CD - Rip - AVC - x264 - 6 channels ( XMR ).sub
    
    
    http://www.wupload.com/file/404986687/Honeymoon (1992) DvD - 2CD - Rip - AVC - x264 - 6 channels ( XMR ).mkv.001
    http://www.wupload.com/file/404968340/Honeymoon (1992) DvD - 2CD - Rip - AVC - x264 - 6 channels ( XMR ).mkv.002
    http://www.wupload.com/file/404974081/Honeymoon (1992) DvD - 2CD - Rip - AVC - x264 - 6 channels ( XMR ).mkv.003
    http://www.wupload.com/file/404968432/Honeymoon (1992) DvD - 2CD - Rip - AVC - x264 - 6 channels ( XMR ).mkv.004
    http://www.wupload.com/file/404968346/Honeymoon (1992) DvD - 2CD - Rip - AVC - x264 - 6 channels ( XMR ).sub

 

 

Posting Permissions

  • You may not post new threads
  • You may not post replies
  • You may not post attachments
  • You may not edit your posts
  •