Results 1 to 1 of 1
  1. #1
    dR Rockers www.desirulez.net
    Join Date
    Aug 2011
    Posts
    5,859

    T

    Default Yuva (2004) - Music Videos - Untouched - DVD9 - PAL - Ibraram-=DrC-=

    Follow us on Social Media












    Yuva (2004) - Music Videos - Untouched - DVD9 - PAL - Ibraram-=DrC-=












    Code:
    Movie : Yuva (2004)
    Imdb :
    Code:
    http://www.imdb.com/title/tt0382383/
    Distributor : Rapid Eye Movies
    Source : DVD9 Pal @ MaGic ()
    Ripper : Ibraram @ DrC
    Size : 895 MB
    Container : Vobs Untouched
    Release Date : 22 May 2004 (India)
    Genre : Action | Adventure | Crime
    Director : Mani Ratnam
    Writers : Anurag Kashyap (dialogue), Mani Ratnam (screenplay)
    Stars : Ajay Devgan, Abhishek Bachchan and Rani Mukherjee
    User Rating : 7.4/10 from 1,989 users

    Ripper Note:


    Njoy DrC Release.

    Always Seed After Complete Enjoy.


    Storyline

    Code:
    Michael (Ajay Devgan) ,
    Arjun (Vivek Oberoi) and Lallan (Abhishek Bachchan)
    are three young men in Kolkata , with different ideals
    and objectives . Michael is an idealistic youth leader
    who dreams of a better India being created by the
    youth power . Arjun is a self-centered , opportunistic ,
    easygoing fellow whose objective is to immigrate to
    a developed country and make big money . Lallan is a
    goon who works for Prosenjit Chatterjee (Om Puri) ,
    an immoral politician . The lives of these three
    different people become intertwined following a
    murder attempt and an accident in broad daylight on
    the Hooghly bridge .

    Technical info:

    Code:
    Format : MPEG-PS
    Overall bit rate : 7 259 Kbps

    Video
    ID : 224 (0xE0)
    Format : MPEG Video
    Format version : Version 2
    Format profile : [email protected]
    Format settings, BVOP : Yes
    Format settings, Matrix : Default
    Bit rate mode : Variable
    Bit rate : 6 346 Kbps
    Maximum bit rate : 7 500 Kbps
    Width : 720 pixels
    Height : 576 pixels
    Display aspect ratio : 2.35:1
    Frame rate : 25.000 fps
    Standard : PAL
    Color space : YUV
    Chroma subsampling : 4:2:0
    Bit depth : 8 bits
    Scan type : Interlaced
    Scan order : Top Field First
    Compression mode : Lossy
    Bits/(Pixel*Frame) : 0.612
    Stream size : 145 MiB (87%)

    Audio #1
    ID : 189 (0xBD)-128 (0x80)
    Format : AC-3
    Format/Info : Audio Coding 3
    Mode extension : CM (complete main)
    Muxing mode : DVD-Video
    Bit rate mode : Constant
    Bit rate : 384 Kbps
    Channel(s) : 6 channels
    Channel positions : Front: L C R, Side: L R, LFE
    Sampling rate : 48.0 KHz
    Bit depth : 16 bits
    Compression mode : Lossy
    Delay relative to video : -240ms
    Stream size : 8.76 MiB (5%)

    Audio #2
    ID : 189 (0xBD)-129 (0x81)
    Format : AC-3
    Format/Info : Audio Coding 3
    Mode extension : CM (complete main)
    Muxing mode : DVD-Video
    Bit rate mode : Constant
    Bit rate : 384 Kbps
    Channel(s) : 6 channels
    Channel positions : Front: L C R, Side: L R, LFE
    Sampling rate : 48.0 KHz
    Bit depth : 16 bits
    Compression mode : Lossy
    Delay relative to video : -240ms
    Stream size : 8.76 MiB (5%)

    Text #1
    ID : 189 (0xBD)-32 (0x20)
    Format : RLE
    Format/Info : Run-length encoding
    Muxing mode : DVD-Video
    Delay relative to video : 40ms

    Text #2
    ID : 189 (0xBD)-33 (0x21)
    Format : RLE
    Format/Info : Run-length encoding
    Muxing mode : DVD-Video
    Duration : 3mn 7s
    Delay relative to video : 40ms

    Text #3
    ID : 189 (0xBD)-34 (0x22)
    Format : RLE
    Format/Info : Run-length encoding
    Muxing mode : DVD-Video
    Delay relative to video : 40ms

    Text #4
    ID : 189 (0xBD)-35 (0x23)
    Format : RLE
    Format/Info : Run-length encoding
    Muxing mode : DVD-Video
    Delay relative to video : 40ms


    Track List:

    Code:
    01 - Kabhi Neem Neem - Yuva (2004) - Music Videos - Untouched - DVD9 - PAL - Ibraram-=DrC-=
    02 - Dhol Dhol - Yuva (2004) - Music Videos - Untouched - DVD9 - PAL - Ibraram-=DrC-=
    03 - Badal - Yuva (2004) - Music Videos - Untouched - DVD9 - PAL - Ibraram-=DrC-=
    04 - Fana - Yuva (2004) - Music Videos - Untouched - DVD9 - PAL - Ibraram-=DrC-=
    05 - Anjaana Anjaani - Yuva (2004) - Music Videos - Untouched - DVD9 - PAL - Ibraram-=DrC-=
    06 - Dhakka Laga Bukka - Yuva (2004) - Music Videos - Untouched - DVD9 - PAL - Ibraram-=DrC-=













    Code:
    http://www.filesonic.com/file/2479243531/01 - Kabhi Neem Neem - Yuva (2004) - Music Videos - Untouched - DVD9 - PAL - Ibraram.VOB
    http://www.filesonic.com/file/2479243551/02 - Dhol Dhol - Yuva (2004) - Music Videos - Untouched - DVD9 - PAL - Ibraram.VOB
    http://www.filesonic.com/file/2479243621/03 - Badal - Yuva (2004) - Music Videos - Untouched - DVD9 - PAL - Ibraram.VOB
    http://www.filesonic.com/file/2479243801/04 - Fana - Yuva (2004) - Music Videos - Untouched - DVD9 - PAL - Ibraram.VOB
    http://www.filesonic.com/file/2479270621/05 - Anjaana Anjaani - Yuva (2004) - Music Videos - Untouched - DVD9 - PAL - Ibraram.VOB
    http://www.filesonic.com/file/2479270341/06 - Dhakka Laga Bukka - Yuva (2004) - Music Videos - Untouched - DVD9 - PAL - Ibraram.VOB
    Code:
    http://www.fileserve.com/file/zrYTS6e/01 - Kabhi Neem Neem - Yuva (2004) - Music Videos - Untouched - DVD9 - PAL - Ibraram.VOB
    http://www.fileserve.com/file/czzrmN8/02 - Dhol Dhol - Yuva (2004) - Music Videos - Untouched - DVD9 - PAL - Ibraram.VOB
    http://www.fileserve.com/file/hXSjtdT/03 - Badal - Yuva (2004) - Music Videos - Untouched - DVD9 - PAL - Ibraram.VOB
    http://www.fileserve.com/file/UPSWXGD/04 - Fana - Yuva (2004) - Music Videos - Untouched - DVD9 - PAL - Ibraram.VOB
    http://www.fileserve.com/file/8BMtHT2/05 - Anjaana Anjaani - Yuva (2004) - Music Videos - Untouched - DVD9 - PAL - Ibraram.VOB
    http://www.fileserve.com/file/wrU6aqc/06 - Dhakka Laga Bukka - Yuva (2004) - Music Videos - Untouched - DVD9 - PAL - Ibraram.VOB
    Code:
    http://www.wupload.com/file/358508265/01 - Kabhi Neem Neem - Yuva (2004) - Music Videos - Untouched - DVD9 - PAL - Ibraram.VOB
    http://www.wupload.com/file/358508267/02 - Dhol Dhol - Yuva (2004) - Music Videos - Untouched - DVD9 - PAL - Ibraram.VOB
    http://www.wupload.com/file/358508176/03 - Badal - Yuva (2004) - Music Videos - Untouched - DVD9 - PAL - Ibraram.VOB
    http://www.wupload.com/file/358508288/04 - Fana - Yuva (2004) - Music Videos - Untouched - DVD9 - PAL - Ibraram.VOB
    http://www.wupload.com/file/358508281/05 - Anjaana Anjaani - Yuva (2004) - Music Videos - Untouched - DVD9 - PAL - Ibraram.VOB
    http://www.wupload.com/file/358508207/06 - Dhakka Laga Bukka - Yuva (2004) - Music Videos - Untouched - DVD9 - PAL - Ibraram.VOB

 

 

Posting Permissions

  • You may not post new threads
  • You may not post replies
  • You may not post attachments
  • You may not edit your posts
  •