Results 1 to 1 of 1
  1. #1
    dR Rockers www.desirulez.net
    Join Date
    Aug 2011
    Posts
    5,859

    T

    Default Bewafa (2005) - 1.68GB - DVDRip - X264 - Ac3 - TDBB

    Follow us on Social Media










    Bewafa (2005) X264 Ac3 DVD Rip Adi Jawed TDBB








    Code:
    General
    Complete name                            : Bewafa X264 Ac3 DVD Rip Adi Jawed TDBB
    Format                                       : Matroska
    Format version                             : Version 2
    File size                                      : 1.68 GiB
    Duration                                     : 2h 29mn
    Overall bit rate                            : 1 611 Kbps
    Ripper                                        : Adi Jawed
    Source                                       : DVD9
    
    Video
    ID                                       : 1
    Format                                   : AVC
    Format/Info                              : Advanced Video Codec
    Format profile                           : [email protected]
    Format settings, CABAC                   : Yes
    Format settings, ReFrames                : 4 frames
    Codec ID                                 : V_MPEG4/ISO/AVC
    Duration                                 : 2h 29mn
    Bit rate                                 : 1 161 Kbps
    Width                                    : 720 pixels
    Height                                   : 304 pixels
    Display aspect ratio                     : 2.35:1
    Frame rate                               : 29.970 fps
    Color space                              : YUV
    Chroma subsampling                       : 4:2:0
    Bit depth                                : 8 bits
    Scan type                                : Progressive
    Bits/(Pixel*Frame)                       : 0.177
    Stream size                              : 1.18 GiB (70%)
    Audio
    ID                                       : 2
    Format                                   : AC-3
    Format/Info                              : Audio Coding 3
    Mode extension                           : CM (complete main)
    Codec ID                                 : A_AC3
    Duration                                 : 2h 29mn
    Bit rate mode                            : Constant
    Bit rate                                 : 448 Kbps
    Channel(s)                               : 6 channels
    Channel positions                        : Front: L C R, Side: L R, LFE
    Sampling rate                            : 48.0 KHz
    Bit depth                                : 16 bits
    Compression mode                         : Lossy
    Stream size                              : 479 MiB (28%)





















    SINGLE LINK


    Code:
    http://www.fileserve.com/file/y9e2YRj/Bewafa (2005) X264 Ac3 DVD Rip Adi Jawed TDBB.mkv

    Code:
    http://www.filesonic.com/file/2342852604/Bewafa (2005) X264 Ac3 DVD Rip Adi Jawed TDBB.mkv

    Code:
    http://www.wupload.com/file/308154155/Bewafa (2005) X264 Ac3 DVD Rip Adi Jawed TDBB.mkv



    450MB LINKS


    Code:
    http://www.fileserve.com/file/K9mTeca/Bewafa (2005) X264 Ac3 DVD Rip Adi Jawed TDBB.mkv.001
    http://www.fileserve.com/file/QhQh9Kn/Bewafa (2005) X264 Ac3 DVD Rip Adi Jawed TDBB.mkv.002
    http://www.fileserve.com/file/JnBUECj/Bewafa (2005) X264 Ac3 DVD Rip Adi Jawed TDBB.mkv.003
    http://www.fileserve.com/file/qbB4thB/Bewafa (2005) X264 Ac3 DVD Rip Adi Jawed TDBB.mkv.004
    
    
    
    http://www.filesonic.com/file/2342822954/Bewafa (2005) X264 Ac3 DVD Rip Adi Jawed TDBB.mkv.001
    http://www.filesonic.com/file/2342817604/Bewafa (2005) X264 Ac3 DVD Rip Adi Jawed TDBB.mkv.002
    http://www.filesonic.com/file/2342941654/Bewafa (2005) X264 Ac3 DVD Rip Adi Jawed TDBB.mkv.003
    http://www.filesonic.com/file/2342843444/Bewafa (2005) X264 Ac3 DVD Rip Adi Jawed TDBB.mkv.004
    
    
    
    http://www.wupload.com/file/308272761/Bewafa (2005) X264 Ac3 DVD Rip Adi Jawed TDBB.mkv.001
    http://www.wupload.com/file/308276925/Bewafa (2005) X264 Ac3 DVD Rip Adi Jawed TDBB.mkv.002
    http://www.wupload.com/file/306963100/Bewafa (2005) X264 Ac3 DVD Rip Adi Jawed TDBB.mkv.003
    http://www.wupload.com/file/307008877/Bewafa (2005) X264 Ac3 DVD Rip Adi Jawed TDBB.mkv.004


 

 

Posting Permissions

  • You may not post new threads
  • You may not post replies
  • You may not post attachments
  • You may not edit your posts
  •