Results 1 to 1 of 1
  1. #1
    dR Dazzler www.desirulez.net
    Join Date
    Mar 2009
    Posts
    1,518

    T

    Default UFC.Ultimate.Insider.The.UFC.136.All-Stars.XviD-R3lentless

    Follow us on Social Media







    UFC.Ultimate.Insider.The.UFC.136.All-Stars.XviD-R3lentless





    Frankie Edgar walks us through his UFC 125 battle with Gray Maynard; Jose Aldo shares his game plan; Chael Sonnen talks more talk; and you see Kenny FLorian like you never have before.










    Video -

    Format : AVI
    Format/Info : Audio Video Interleave
    File size : 224 MiB
    Duration : 15mn 45s
    Overall bit rate : 1 985 Kbps

    Format : xvid
    Codec ID : xvid
    Duration : 15mn 45s
    Bit rate : 1 844 Kbps
    Width : 704 pixels
    Height : 400 pixels
    Display aspect ratio : 16:9
    Frame rate : 29.970 fps
    Bits/(Pixel*Frame) : 0.218
    Stream size : 208 MiB (93%)






    Audio -

    Format : MPEG Audio
    Format version : Version 1
    Format profile : Layer 3
    Mode : Joint stereo
    Mode extension : MS Stereo
    Codec ID : 55

    Codec ID/Hint : MP3
    Duration : 15mn 45s
    Bit rate mode : Constant
    Bit rate : 128 Kbps
    Channel(s) : 2 channels
    Sampling rate : 44.1 KHz
    Compression mode : Lossy
    Stream size : 14.4 MiB (6%)
    Alignment : Aligned on interleaves
    Interleave, duration : 26 ms (0.78 video frame)
    Interleave, preload duration : 26 ms
    Writing library : LAME3.97


    Code:
    FileServe Link:-
    http://www.fileserve.com/file/veu9jPt/UFC.Ultimate.Insider.The.UFC.136.All-Stars.XviD-R3lentless_.avi
    
    Wupload Link:-
    http://www.wupload.com/file/323278402/UFC.Ultimate.Insider.The.UFC.136.All-Stars.XviD-R3lentless .avi
    
    FileSonic Link:-
    http://www.filesonic.com/file/2383467031/UFC.Ultimate.Insider.The.UFC.136.All-Stars.XviD-R3lentless .avi

 

 

Posting Permissions

  • You may not post new threads
  • You may not post replies
  • You may not post attachments
  • You may not edit your posts
  •