Results 1 to 1 of 1
  1. #1
    dR Rockers www.desirulez.net
    Join Date
    Sep 2011
    Posts
    248

    T

    Post Iron Man Duology 720p Dual Audio [Eng-Hindi] - HeNry[~KSRR~]

    Follow us on Social Media








    Iron Man Duology 720p Dual Audio [Eng-Hindi] - HeNry[~KSRR~]





    Format : Matroska
    Format version : Version 2
    File size : 906 MiB
    Duration : 2h 6mn
    Overall bit rate : 1 005 Kbps
    Movie name : Iron Man 2008
    Encoded date : UTC 2011-09-24 05:15:35
    Writing application : mkvmerge v4.9.1 ('Ich will')
    Writing library : libebml v1.2.1 + libmatroska v1.1.1

    Video
    ID : 1
    Format : AVC
    Format/Info : Advanced Video Codec
    Format profile : [email protected]
    Format settings, CABAC : Yes
    Format settings, ReFrames : 8 frames
    Muxing mode : Header stripping
    Codec ID : V_MPEG4/ISO/AVC
    Duration : 2h 6mn
    Bit rate : 750 Kbps
    Width : 1 280 pixels
    Height : 528 pixels
    Display aspect ratio : 2.40:1
    Frame rate : 23.976 fps
    Color space : YUV
    Chroma subsampling : 4:2:0
    Bit depth : 8 bits
    Scan type : Progressive
    Bits/(Pixel*Frame) : 0.046
    Stream size : 657 MiB (73%)
    Writing library : x264

    Audio #1
    Codec ID/Hint : MP3
    Duration : 2h 6mn
    Bit rate mode : Variable
    Bit rate : 128 Kbps
    Channel(s) : 2 channels
    Mode : Joint stereo
    Sampling rate : 48.0 KHz
    Stream size : 115 MiB (13%)
    Title : Henry[~KSRR~]
    Language : English

    Audio #2
    Codec ID/Hint : MP3
    Duration : 2h 6mn
    Bit rate mode : Constant
    Bit rate : 128 Kbps
    Channel(s) : 2 channels
    Mode : Joint stereo
    Sampling rate : 48.0 KHz
    Stream size : 115 MiB (13%)
    Title : Henry[~KSRR~]
    Language : Hindi








    Iron Man 2010 Bluray


    Format : Matroska
    Format version : Version 2
    File size : 886 MiB
    Duration : 1h 59mn
    Overall bit rate : 1 038 Kbps
    Movie name : Iron Man 2010
    Encoded date : UTC 2011-09-26 11:54:06
    Writing application : mkvmerge v4.9.1 ('Ich will')
    Writing library : libebml v1.2.1 + libmatroska v1.1.1

    Video
    ID : 1
    Format : AVC
    Format/Info : Advanced Video Codec
    Format profile : [email protected]
    Format settings, CABAC : Yes
    Format settings, ReFrames : 8 frames
    Muxing mode : Header stripping
    Codec ID : V_MPEG4/ISO/AVC
    Duration : 1h 59mn
    Bit rate : 781 Kbps
    Width : 1 280 pixels
    Height : 544 pixels
    Display aspect ratio : 2.35:1
    Frame rate : 23.976 fps
    Color space : YUV
    Chroma subsampling : 4:2:0
    Bit depth : 8 bits
    Scan type : Progressive
    Bits/(Pixel*Frame) : 0.047
    Stream size : 650 MiB (73%)
    Writing library : x264

    Audio #1
    Codec ID/Hint : MP3
    Duration : 1h 59mn
    Bit rate : 128 Kbps
    Channel(s) : 2 channels
    Mode : Joint stereo
    Sampling rate : 48.0 KHz
    Stream size : 109 MiB (12%)
    Title : Henry[~KSRR~]
    Language : English

    Audio #2
    Codec ID/Hint : MP3
    Duration : 1h 59mn
    Bit rate : 128 Kbps
    Channel(s) : 2 channels
    Mode : Joint stereo
    Sampling rate : 48.0 KHz
    Stream size : 109 MiB (12%)
    Title : Henry[~KSRR~]
    Language : Hindi












    Iron Man
    Code:
    http://cramit.in/t3855x0dtwuy
    
    http://depositfiles.com/files/tfcf9j16p
    
    http://www.fileserve.com/file/M9Dw9Qy/Iron Man.mkv
    
    http://www.filesonic.com/file/2359683221
    
    http://www.wupload.com/file/319911084
    Iron Man 2
    Code:
    http://cramit.in/p1idxqe6r2n8
    
    http://depositfiles.com/files/e8zcalz8b
    
    http://www.fileserve.com/file/6qruJTk/Iron Man 2.mkv
    
    http://www.filesonic.com/file/2359669341
    
    http://www.wupload.com/file/319887782



 

 

Posting Permissions

  • You may not post new threads
  • You may not post replies
  • You may not post attachments
  • You may not edit your posts
  •