Results 1 to 1 of 1
  1. #1
    dR Rockers www.desirulez.net
    Join Date
    Sep 2011
    Posts
    248

    T

    Post Chocolat (2000) BluRay 720p Dual Audio [Eng-Hindi]-=!SSHINU!=-

    Follow us on Social Media








    Chocolat (2000) BluRay 720p Dual Audio [Eng-Hindi]-=!SSHINU!=-








    Genre: Drama | Mystery | Romance
    Format: Matroska
    File size: 733mb
    Duration: 1h 56mn
    Movie name: Chocolat (2000) BluRay 720p Dual Audio [Eng-Hindi]-=![SSHINU]!=-{Destiny}
    Language: English and Hindi
    Ripper: Destiny




    Budget: $25,000,000 (estimated)
    Opening Weekend: $157,624 (USA)
    Gross: $152,699,946 (Worldwide)



    Chocolat (2000) - IMDb



    Video
    ID : 1
    Format : AVC
    Format/Info : Advanced Video Codec
    Format profile : [email protected]
    Format settings, CABAC : Yes
    Format settings, ReFrames : 8 frames
    Codec ID : V_MPEG4/ISO/AVC
    Duration : 1h 56mn
    Bit rate : 786 Kbps
    Width : 1 280 pixels
    Height : 720 pixels
    Display aspect ratio : 16:9
    Frame rate : 23.976 fps
    Color space : YUV
    Chroma subsampling : 4:2:0
    Bit depth : 8 bits
    Scan type : Progressive
    Bits/(Pixel*Frame) : 0.036
    Stream size : 652 MiB (86%)
    Title : Destiny
    Language : English




    Audio #1
    ID : 2
    Format : MPEG Audio
    Format version : Version 1
    Format profile : Layer 3
    Mode : Joint stereo
    Mode extension : MS Stereo
    Codec ID : A_MPEG/L3
    Codec ID/Hint : MP3
    Duration : 1h 57mn
    Bit rate mode : Constant
    Bit rate : 80.0 Kbps
    Channel(s) : 2 channels
    Sampling rate : 32.0 KHz
    Compression mode : Lossy
    Delay relative to video : 8s 750ms
    Stream size : 67.2 MiB (9%)
    Title : Destiny
    Writing library : LAME3.98r
    Language : Hindi




    Audio #2
    ID : 3
    Format : MPEG Audio
    Format version : Version 1
    Format profile : Layer 3
    Mode : Joint stereo
    Mode extension : MS Stereo
    Codec ID : A_MPEG/L3
    Codec ID/Hint : MP3
    Duration : 1h 56mn
    Bit rate mode : Constant
    Bit rate : 32.0 Kbps
    Channel(s) : 2 channels
    Sampling rate : 48.0 KHz
    Compression mode : Lossy
    Stream size : 26.8 MiB (4%)
    Title : -=!SSHINU!=-
    Writing library : LAME3.97
    Language : English











    Code:
    http://cramit.in/fn62bql790ab
    SuB
    http://cramit.in/gmjcoy4teuwd
    
    http://depositfiles.com/files/vkm9fqaa1
    SuB
    http://depositfiles.com/files/ooadpr56v
    
    http://www.fileserve.com/file/em6hZUa/Chocolat (2000) BluRay 720p Dual Audio [Eng-Hindi]-=![SSHINU]!=-mkv.mkv
    SuB
    http://www.fileserve.com/file/fbTN9SE/Chocolat (2000) 720p BRRip Eng-Subtitle~{Destiny}.srt
    
    http://www.filesonic.com/file/2268312714/Chocolat (2000) BluRay 720p Dual Audio [Eng-Hindi]-=![SSHINU]!=-mkv.mkv
    SuB
    http://www.filesonic.com/file/2268268654/Chocolat (2000) 720p BRRip Eng-Subtitle~{Destiny}.srt
    
    http://www.wupload.com/file/255679044
    SuB
    http://www.wupload.com/file/255663361





 

 

Posting Permissions

  • You may not post new threads
  • You may not post replies
  • You may not post attachments
  • You may not edit your posts
  •