Results 1 to 1 of 1
  1. #1
    Banned www.desirulez.net
    Join Date
    Apr 2011
    Posts
    127

    T

    Default Force (2011) HinDi SCAM Rip XviD MP3 1.1GB [TMK]

    Follow us on Social Media







    Force (2011) HinDi SCAM Rip XviD MP3 1.1GB [TMK]




    INFO
    Format : AVI
    Format/Info : Audio Video Interleave
    Format profile : OpenDML
    File size : 1.11 GiB
    Duration : 2h 8mn
    Overall bit rate : 1 238 Kbps
    Writing application : Lavf52.39.1
    Video
    ID : 0
    Format : xvidCodec ID : xvid
    Duration : 2h 8mn
    Bit rate : 139 Kbps
    Width : 624 pixels
    Height : 272 pixels
    Display aspect ratio : 2.25:1
    Frame rate : 29.970 fps
    Bits/(Pixel*Frame) : 0.027
    Stream size : 128 MiB (11%)
    Audio
    ID : 1
    Format : MPEG Audio
    Codec ID : 55
    Codec ID/Hint : MP3
    Duration : 2h 8mn
    Bit rate : 64.0 Kbps
    Channel(s) : 2 channels
    Sampling rate : 44.1 KHz
    Compression mode : Lossy
    Stream size : 5.33 MiB (0%)
    Alignment : Aligned on interleaves
    Interleave, duration : 36 ms (1.09 video frame)










    1GB Links

    Code:
    http://www.fileserve.com/file/X54svf9
    http://www.wupload.com/file/252880553/Force.2011.SCAM.XviD.MP3.1.11GB-SDL.avi
    http://www.filesonic.com/file/2263506491/Force.2011.SCAM.XviD.MP3.1.11GB-SDL.avi
    http://filekeen.com/vpeajba7bfu2/Force.2011.SCAM.XviD.MP3.1.11GB-SDL.avi.html

 

 

Posting Permissions

  • You may not post new threads
  • You may not post replies
  • You may not post attachments
  • You may not edit your posts
  •