Results 1 to 1 of 1
  1. #1
    dR Contributor www.desirulez.net
    Join Date
    Feb 2011
    Location
    www.desirulez.net
    Posts
    482

    T

    Default Force (2011) - Hindi - SCAM - Rip - XviD - MP3 - 400MB - [TMK]

    Follow us on Social Media







    [SIZE="6"]Force (2011) - Hindi - SCAM - Rip - XviD - MP3 - 400MB - [TMK]






    Format : AVIFormat/Info : Audio Video InterleaveFile size : 399 MiBDuration : 2h 8mnOverall bit rate : 435 KbpsWriting application : Lavf52.61.0Writing library : VirtualDub build 32842/releaseVideoID : 0Format : MPEG-4 VisualFormat profile : Advanced [email protected] settings, BVOP : 1Format settings, QPel : NoFormat settings, GMC : No warppointsFormat settings, Matrix : CustomCodec ID : XVIDCodec ID/Hint : XviDDuration : 2h 8mnBit rate : 294 KbpsWidth : 624 pixelsHeight : 272 pixelsDisplay aspect ratio : 2.25:1Frame rate : 29.970 fpsColor space : YUVChroma subsampling : 4:2:0Bit depth : 8 bitsScan type : ProgressiveCompression mode : LossyBits/(Pixel*Frame) : 0.058Stream size : 270 MiB (68%)Writing library : XviD 64AudioID : 1Format : MPEG AudioFormat version : Version 1Format profile : Layer 3Mode : Joint stereoMode extension : MS StereoCodec ID : 55Codec ID/Hint : MP3Duration : 2h 8mnBit rate mode : ConstantBit rate : 128 KbpsChannel(s) : 2 channelsSampling rate : 44.1 KHzCompression mode : LossyStream size : 117 MiB (29%)Alignment : Aligned on interleavesInterleave, duration : 26 ms (0.78 video frame)Interleave, preload duration : 522 ms




    Movie Link::


    Code:
    http://www.fileserve.com/file/9s77MjR

 

 

Posting Permissions

  • You may not post new threads
  • You may not post replies
  • You may not post attachments
  • You may not edit your posts
  •