Results 1 to 1 of 1
  1. #1
    Hot Member www.desirulez.net
    Join Date
    Oct 2010
    Posts
    859

    T

    Cool Force (2011) - Hindi - SCAM - Rip - XviD - MP3 - 400MB - [TMK]

    Follow us on Social Media









    Code:
    Format                           : AVI
    Format/Info                      : Audio Video Interleave
    File size                        : 399 MiB
    Duration                         : 2h 8mn
    Overall bit rate                 : 435 Kbps
    Writing application              : Lavf52.61.0
    Writing library                  : VirtualDub build 32842/release
    
    Video
    ID                               : 0
    Format                           : MPEG-4 Visual
    Format profile                   : Advanced [email protected]
    Format settings, BVOP            : 1
    Format settings, QPel            : No
    Format settings, GMC             : No warppoints
    Format settings, Matrix          : Custom
    Codec ID                         : XVID
    Codec ID/Hint                    : XviD
    Duration                         : 2h 8mn
    Bit rate                         : 294 Kbps
    Width                            : 624 pixels
    Height                           : 272 pixels
    Display aspect ratio             : 2.25:1
    Frame rate                       : 29.970 fps
    Color space                      : YUV
    Chroma subsampling               : 4:2:0
    Bit depth                        : 8 bits
    Scan type                        : Progressive
    Compression mode                 : Lossy
    Bits/(Pixel*Frame)               : 0.058
    Stream size                      : 270 MiB (68%)
    Writing library                  : XviD 64
    
    Audio
    ID                               : 1
    Format                           : MPEG Audio
    Format version                   : Version 1
    Format profile                   : Layer 3
    Mode                             : Joint stereo
    Mode extension                   : MS Stereo
    Codec ID                         : 55
    Codec ID/Hint                    : MP3
    Duration                         : 2h 8mn
    Bit rate mode                    : Constant
    Bit rate                         : 128 Kbps
    Channel(s)                       : 2 channels
    Sampling rate                    : 44.1 KHz
    Compression mode                 : Lossy
    Stream size                      : 117 MiB (29%)
    Alignment                        : Aligned on interleaves
    Interleave, duration             : 26 ms (0.78 video frame)
    Interleave, preload duration     : 522 ms








    Credits : TMK





    Code:
    http://www.wupload.com/file/246703289/For.2011.SCAM.XviD.MP3.400MB.SDL.avi


    Code:
    http://www.filesonic.com/file/2258548851/For.2011.SCAM.XviD.MP3.400MB.SDL.avi


    Code:
    http://www.fileserve.com/file/zdv2prK/For.2011.SCAM.XviD.MP3.400MB.SDL.avi
    Split Links :-

    Code:
    http://www.wupload.com/file/246703287/For.2011.SCAM.XviD.MP3.400MB.SDL.avi.001
    http://www.wupload.com/file/246676429/For.2011.SCAM.XviD.MP3.400MB.SDL.avi.002
    http://www.wupload.com/file/246676423/For.2011.SCAM.XviD.MP3.400MB.SDL.avi.003
    http://www.wupload.com/file/246703283/For.2011.SCAM.XviD.MP3.400MB.SDL.avi.004
    Code:
    http://www.filesonic.com/file/2258504921/For.2011.SCAM.XviD.MP3.400MB.SDL.avi.001
    http://www.filesonic.com/file/2258500511/For.2011.SCAM.XviD.MP3.400MB.SDL.avi.002
    http://www.filesonic.com/file/2258491254/For.2011.SCAM.XviD.MP3.400MB.SDL.avi.003
    http://www.filesonic.com/file/2258499474/For.2011.SCAM.XviD.MP3.400MB.SDL.avi.004
    Code:
    http://www.fileserve.com/file/8e7s2Eh/For.2011.SCAM.XviD.MP3.400MB.SDL.avi.001
    http://www.fileserve.com/file/bAwXSwn/For.2011.SCAM.XviD.MP3.400MB.SDL.avi.002
    http://www.fileserve.com/file/PPepTMX/For.2011.SCAM.XviD.MP3.400MB.SDL.avi.003
    http://www.fileserve.com/file/zeGHyz7/For.2011.SCAM.XviD.MP3.400MB.SDL.avi.004

 

 

Posting Permissions

  • You may not post new threads
  • You may not post replies
  • You may not post attachments
  • You may not edit your posts
  •