Results 1 to 1 of 1
  1. #1
    dR Contributor www.desirulez.net
    Join Date
    Feb 2011
    Location
    www.desirulez.net
    Posts
    482

    T

    Default Mausam 2011 (Audio Cleaned) 400MB DVDScr Rip XviD ~ TMK ~

    Follow us on Social Media







    Mausam 2011 (Audio Cleaned) 400MB DVDScr Rip XviD ~ TMK ~





    Format : MPEG-4Format profile : Base Media / Version 2Codec ID : mp42File size : 403 MiBDuration : 2h 36mnOverall bit rate : 361 KbpsVideoID : 1Format : AVCFormat/Info : Advanced Video CodecFormat profile : [email protected] settings, CABAC : YesFormat settings, ReFrames : 4 framesCodec ID : avc1Codec ID/Info : Advanced Video CodingDuration : 2h 36mnBit rate mode : VariableBit rate : 242 KbpsWidth : 656 pixelsHeight : 272 pixelsDisplay aspect ratio : 2.40:1Frame rate mode : VariableFrame rate : 23.976 fpsMinimum frame rate : 11.987 fpsMaximum frame rate : 99.010 fpsColor space : YUVChroma subsampling : 4:2:0Bit depth : 8 bitsScan type : ProgressiveBits/(Pixel*Frame) : 0.057Stream size : 272 MiB (68%)Writing library : x264 core 112Encoded date : UTC 2011-09-25 12:15:16Tagged date : UTC 2011-09-25 12:29:54Material_Duration : 9372157Material_StreamSize : 285650784Material_FrameCount : 224711AudioID : 2Format : AACFormat/Info : Advanced Audio CodecFormat profile : LCCodec ID : 40Duration : 2h 36mnBit rate mode : VariableBit rate : 112 KbpsMaximum bit rate : 144 KbpsChannel(s) : 2 channelsChannel positions : Front: L RSampling rate : 44.1 KHzCompression mode : LossyStream size : 125 MiB (31%)Material_Duration : 9372062Material_StreamSize : 131176837






    Movie Link::


    Code:
    http://www.wupload.com/file/227185955/Mausam_2011_DVDScr_400MB.mp4
    
    
    http://www.filejungle.com/f/eJpETn

 

 

Posting Permissions

  • You may not post new threads
  • You may not post replies
  • You may not post attachments
  • You may not edit your posts
  •