Results 1 to 1 of 1
  1. #1
    Super Member www.desirulez.net
    Join Date
    Jan 2011
    Posts
    495

    T

    Default UFC.135.HDTV.AC3.X264.MKV-GTi

    Follow us on Social Media







    UFC.135.HDTV.AC3.X264.MKV-GTi




    UFC.135.HDTV.AC3.X264.MKV-GTi.mkv

    Format : Matroska
    File size : 1.38 GiB
    Duration : 2h 43mn
    Overall bit rate : 1 209 Kbps

    Video
    ID : 1
    Format : AVC
    Format/Info : Advanced Video Codec
    Format profile : [email protected]
    Format settings, CABAC : Yes
    Format settings, ReFrames : 4 frames
    Codec ID : V_MPEG4/ISO/AVC
    Duration : 2h 43mn
    Bit rate : 1 050 Kbps
    Width : 624 pixels
    Height : 352 pixels
    Display aspect ratio : 16:9
    Frame rate mode : Variable
    Frame rate : 25.000 fps
    Color space : YUV
    Chroma subsampling : 4:2:0
    Bit depth : 8 bits
    Scan type : Progressive
    Bits/(Pixel*Frame) : 0.191
    Stream size : 1.17 GiB (85%)
    Writing library : x264 core 112
    Audio
    ID : 2
    Format : AC-3
    Format/Info : Audio Coding 3
    Mode extension : CM (complete main)
    Codec ID : A_AC3
    Duration : 2h 43mn
    Bit rate mode : Constant
    Bit rate : 160 Kbps
    Channel(s) : 2 channels
    Channel positions : Front: L R
    Sampling rate : 48.0 KHz
    Bit depth : 16 bits
    Compression mode : Lossy
    Stream size : 187 MiB (13%)
    Language : English



    Code:
    FILESERVE
    http://www.fileserve.com/file/jPzDs28/UFC.135.HDTV.AC3.X264.MKV-GTi.part1.rar
    http://www.fileserve.com/file/cW9K3FF/UFC.135.HDTV.AC3.X264.MKV-GTi.part2.rar
    Code:
    FILESONIC
    http://www.filesonic.com/file/2159288664/UFC.135.HDTV.AC3.X264.MKV-GTi.part1.rar
    http://www.filesonic.com/file/2158930064/UFC.135.HDTV.AC3.X264.MKV-GTi.part2.rar

 

 

Posting Permissions

  • You may not post new threads
  • You may not post replies
  • You may not post attachments
  • You may not edit your posts
  •