Results 1 to 1 of 1
  1. #1

    Default Mausam (2011) - 1.21GB - Super Cam - XviiD - Mp3 [FK,UF,FP,CI]

    Follow us on Social Media





    RIP & MOVIE DETAILS


    Code:
    Format                           : AVI
    Format/Info                      : Audio Video Interleave
    Format profile                   : OpenDML
    File size                        : 1.21 GiB
    Duration                         : 2h 20mn
    Overall bit rate                 : 1 231 Kbps
    Writing application              : Lavf52.39.1
    
    Video
    ID                               : 0
    Format                           : xvid
    Codec ID                         : xvid
    Duration                         : 2h 20mn
    Bit rate                         : 237 Kbps
    Width                            : 624 pixels
    Height                           : 270 pixels
    Display aspect ratio             : 2.35:1
    Frame rate                       : 25.000 fps
    Bits/(Pixel*Frame)               : 0.056
    Stream size                      : 239 MiB (19%)
    
    Audio
    ID                               : 1
    Format                           : MPEG Audio
    Codec ID                         : 55
    Codec ID/Hint                    : MP3
    Duration                         : 2h 20mn
    Bit rate                         : 64.0 Kbps
    Channel(s)                       : 2 channels
    Sampling rate                    : 48.0 KHz
    Compression mode                 : Lossy
    Stream size                      : 10.8 MiB (1%)
    Alignment                        : Aligned on interleaves
    Interleave, duration             : 30 ms (0.74 video frame)


    SCREENSHOTS(Clickable Thumbnails)














    DOWNLOAD LINKS
    Code:
    http://filekeen.com/1yn3ugdfarf0/Mausam_2011_1.21GB_Super_Cam_XviiD_Mp3.avi.html
    
    http://cramit.in/pks9hi59qor6/Mausam_2011-1.21GB-Super_Cam-XviiD-Mp3.avi
    
    http://filepost.com/files/c6411788/Mausam_2011_1.21GB_Super_Cam_XviiD_Mp3.avi
    
    http://upfile.in/u9ovur20v5yb/Mausam_2011_1.21GB_Super_Cam_XviiD_Mp3.avi

 

 

Posting Permissions

  • You may not post new threads
  • You may not post replies
  • You may not post attachments
  • You may not edit your posts
  •