Results 1 to 1 of 1
  1. #1
    dR Contributor www.desirulez.net
    Join Date
    Feb 2011
    Location
    www.desirulez.net
    Posts
    482

    T

    Default Mausam (2011) - Untouched - YamRaaJ - SCAM - Rip - MPG - 1CD - [Team DUS]

    Follow us on Social Media







    Mausam (2011) - Untouched - YamRaaJ - SCAM - Rip - MPG - 1CD - [Team DUS]







    Format : MPEG-PSFile size : 698 MiBDuration : 2h 21mnOverall bit rate : 691 KbpsWriting library : encoded by TMPGEnc Video Mastering Works 5 Version. 5.0.5.32VideoID : 224 (0xE0)Format : MPEG VideoFormat version : Version 1Format settings, BVOP : YesFormat settings, Matrix : CustomDuration : 2h 21mnBit rate mode : VariableBit rate : 613 KbpsMaximum bit rate : 616 KbpsWidth : 352 pixelsHeight : 288 pixelsDisplay aspect ratio : 4:3Frame rate : 25.000 fpsStandard : PALColor space : YUVBit depth : 8 bitsScan type : ProgressiveCompression mode : LossyBits/(Pixel*Frame) : 0.242Stream size : 620 MiB (89%)Writing library : TMPGEnc Video Mastering Works 5 Version. 5.0.5.32AudioID : 192 (0xC0)Format : MPEG AudioFormat version : Version 1Format profile : Layer 2Duration : 2h 21mnBit rate mode : ConstantBit rate : 64.0 KbpsChannel(s) : 2 channelsSampling rate : 48.0 KHzCompression mode : LossyStream size : 64.7 MiB (9%)













    Movie Link::



    Code:
    http://www.wupload.com/file/203026279/Mau.2011.SCAM.1CD.MPG-SDL.mpg
    
    http://www.filesonic.com/file/2126819351/Mau.2011.SCAM.1CD.MPG-SDL.mpg

 

 

Posting Permissions

  • You may not post new threads
  • You may not post replies
  • You may not post attachments
  • You may not edit your posts
  •