Results 1 to 1 of 1
  1. #1
    Banned www.desirulez.net
    Join Date
    Jan 2010
    Posts
    2,522

    T

    Default Speedy Singh - 2011 - SCAM - Team DUS Exclusive

    Follow us on Social Media







    Speedy Singh - 2011 - SCAM - Team DUS Exclusive
    NOTE: THIS MOVIE IS ONLY 49 MINUTES, Don'T Blame me, this is what is available on the net for upload, so i uploaded whatever i got.
    Format : AVI
    Format/Info : Audio Video Interleave
    File size : 1.03 GiB
    Duration : 49mn 1s
    Overall bit rate : 3 016 Kbps
    Writing library : VirtualDub build 32842/release

    Video
    ID : 0
    Format : MPEG-4 Visual
    Format profile : Advanced [email protected]
    Format settings, BVOP : 1
    Format settings, QPel : No
    Format settings, GMC : No warppoints
    Format settings, Matrix : Custom
    Codec ID : XVID
    Codec ID/Hint : XviD
    Duration : 49mn 1s
    Bit rate : 1 470 Kbps
    Width : 640 pixels
    Height : 272 pixels
    Display aspect ratio : 2.35:1
    Frame rate : 25.000 fps
    Color space : YUV
    Chroma subsampling : 4:2:0
    Bit depth : 8 bits
    Scan type : Progressive
    Compression mode : Lossy
    Bits/(Pixel*Frame) : 0.338
    Stream size : 515 MiB (49%)
    Writing library : XviD 64

    Audio
    ID : 1
    Format : PCM
    Format settings, Endianness : Little
    Format settings, Sign : Signed
    Codec ID : 1
    Codec ID/Hint : Microsoft
    Duration : 49mn 1s
    Bit rate mode : Constant
    Bit rate : 1 536 Kbps
    Channel(s) : 2 channels
    Sampling rate : 48.0 KHz
    Bit depth : 16 bits
    Stream size : 539 MiB (51%)
    Interleave, duration : 40 ms (1.00 video frame)
    Interleave, preload duration : 500 ms






    1GB Links


    Code:
    http://www.filesonic.com/file/2126186671/SpeedySinghs.avi

    Code:
    http://www.wupload.com/file/202945530/SpeedySinghs.avi

    Code:
    http://www.fileserve.com/file/Y9Xje3z/SpeedySinghs.avi







 

 

Posting Permissions

  • You may not post new threads
  • You may not post replies
  • You may not post attachments
  • You may not edit your posts
  •