Results 1 to 1 of 1
  1. #1
    Hot Member www.desirulez.net
    Join Date
    Mar 2009
    Posts
    561

    T

    Angry Mausam (2011)- 1CD-SCam-Rip-[Exclusive]-[YamRaaJ]

    Follow us on Social Media












    CLICK THE IMAGES TO VIEW ITS FULL SIZE




    Code:
    Format                           : MPEG-PS
    File size                        : 698 MiB
    Duration                         : 2h 21mn
    Overall bit rate                 : 691 Kbps
    Writing library                  : encoded by TMPGEnc Video Mastering Works 5 Version. 5.0.5.32
    
    Video
    ID                               : 224 (0xE0)
    Format                           : MPEG Video
    Format version                   : Version 1
    Format settings, BVOP            : Yes
    Format settings, Matrix          : Custom
    Duration                         : 2h 21mn
    Bit rate mode                    : Variable
    Bit rate                         : 613 Kbps
    Maximum bit rate                 : 616 Kbps
    Width                            : 352 pixels
    Height                           : 288 pixels
    Display aspect ratio             : 4:3
    Frame rate                       : 25.000 fps
    Standard                         : PAL
    Color space                      : YUV
    Bit depth                        : 8 bits
    Scan type                        : Progressive
    Compression mode                 : Lossy
    Bits/(Pixel*Frame)               : 0.242
    Stream size                      : 620 MiB (89%)
    Writing library                  : TMPGEnc Video Mastering Works 5 Version. 5.0.5.32
    
    Audio
    ID                               : 192 (0xC0)
    Format                           : MPEG Audio
    Format version                   : Version 1
    Format profile                   : Layer 2
    Duration                         : 2h 21mn
    Bit rate mode                    : Constant
    Bit rate                         : 64.0 Kbps
    Channel(s)                       : 2 channels
    Sampling rate                    : 48.0 KHz
    Compression mode                 : Lossy
    Stream size                      : 64.7 MiB (9%)
    CREDIT TO YamRaaJ


    DOWNLOAD:

    Single Links

    Code:
    http://cramit.in/kbuxkx99gz6h
    
    Or
    
    http://www.wupload.com/file/202923501

    Plz Buy A Premium Account From My Link To Support My Upload






 

 

Posting Permissions

  • You may not post new threads
  • You may not post replies
  • You may not post attachments
  • You may not edit your posts
  •