Results 1 to 1 of 1
  1. #1
    dR Contributor
    Join Date
    Jan 2011

    Smile Omkara (2006) - 1CD - DVDRip - x264 - [M2Tv]

    Follow us on Social Media

    Release Date : 28 July 2006
    Cast : Ajay Devgan, Vivek Oberoi, Kareena Kapoor, Saif Ali Khan, Konkona Sen Sharma, Bipasha Basu, Naseeruddin Shah
    Producer : Kumar Mangat Pathak
    Director : Vishal Bhardwaj
    Music : Vishal Bhardwaj
    Genre: Action, Drama


    Advocate Raghunath Mishra has arranged the marriage of his daughter, Dolly, with Rajan, knowing fully well that Dolly loves Omkara Shukla. Before the marriage could take place, the groom's party is attacked, they flee, and Dolly is reportedly abducted. Raghunath is able to trace Dolly to Omkara, a criminal and hit-man, a verbal confrontation ensues until Politician Bhaisaab telephonically intervenes, and a crestfallen Raghunath faces the reality that Dolly was not abducted but is here with Omkara by her own free will. He warns Omkara, and departs. Shortly thereafter, Bhaisaab is shot at and wounded, announces that Omkara should stand in the next election, and as a result, Omkara appoints one of his lieutenants', Keshav Upadhyay in his place as the 'Bahubali". Omkara realizes that he may have blundered in having Keshav succeed him, as Keshav is unable to control his temper when under the influence of alcohol...

    File size : 696 MiB
    Duration : 2h 32mn
    Overall bit rate : 638 Kbps

    ID : 1
    Format : AVC
    Format/Info : Advanced Video Codec
    Format profile : [email protected]
    Format settings, CABAC : Yes
    Format settings, ReFrames : 4 frames
    Muxing mode : Container [email protected]
    Codec ID : V_MPEG4/ISO/AVC
    Duration : 2h 32mn
    Bit rate : 498 Kbps
    Nominal bit rate : 509 Kbps
    Width : 608 pixels
    Height : 256 pixels
    Display aspect ratio : 2.35:1
    Frame rate : 29.970 fps
    Resolution : 8 bits
    Colorimetry : 4:2:0
    Scan type : Progressive
    Bits/(Pixel*Frame) : 0.107
    Stream size : 542 MiB (78%)
    Writing library : x264 core 98 r1649 c54c47d

    ID : 2
    Format : AC-3
    Format/Info : Audio Coding 3
    Codec ID : A_AC3
    Duration : 2h 32mn
    Bit rate mode : Constant
    Bit rate : 128 Kbps
    Channel(s) : 6 channels
    Channel positions : Front: L C R, Surround: L R, LFE
    Sampling rate : 48.0 KHz
    Stream size : 140 MiB (20%)
    Language : Hindi

    Credits to "Team M2Tv"





Posting Permissions

  • You may not post new threads
  • You may not post replies
  • You may not post attachments
  • You may not edit your posts