Results 1 to 1 of 1
  1. #1
    Banned www.desirulez.net
    Join Date
    Jan 2010
    Posts
    2,522

    T

    Default Twilight (Duology) - 1 .17GB - BRRIP - 720p - (Hindi) - [TDT]

    Follow us on Social Media







    Twilight (Duology) - 1 .17GB - BRRIP - 720p - (Hindi) - [TDT]





    Language : Hindi Audio ID : 1 Format : MPEG Audio Format version : Version 2 Format profile : Layer 3 Mode : Joint stereo Mode extension : MS Stereo Muxing mode : Header stripping Codec ID : A_MPEG/L3 Codec ID/Hint : MP3 Duration : 2h 5mn Bit rate mode : Constant Bit rate : 48.0 Kbps Channel(s) : 2 channels Sampling rate : 16.0 KHz Compression mode : Lossy Delay relative to video : 2s 800ms Stream size : 43.0 MiB (8%) Title : Hindi Audio Writing library : LAME3.98 (beta) Language : Hindi Format : Matroska File size : 641 MiB Duration : 1h 58mn Overall bit rate : 754 Kbps Movie name : Eclipse 2010 BRRip 720p-(Hindi) by Deadman[TDT] Encoded date : UTC 2011-09-18 17:30:04 Writing application : mkvmerge v4.4.0 ('Die Wiederkehr') built on Oct 31 2010 21:52:48 Writing library : libebml v1.0.0 + libmatroska v1.0.0 Video ID : 1 Format : AVC Format/Info : Advanced Video Codec Format profile : [email protected] Format settings, CABAC : Yes Format settings, ReFrames : 8 frames Muxing mode : Header stripping Codec ID : V_MPEG4/ISO/AVC Duration : 1h 58mn Bit rate : 608 Kbps Width : 1 280 pixels Height : 528 pixels Display aspect ratio : 2.40:1 Frame rate : 25.000 fps Original frame rate : 23.976 fps Color space : YUV Chroma subsampling : 4:2:0 Bit depth : 8 bits Scan type : Progressive Bits/(Pixel*Frame) : 0.036 Stream size : 520 MiB (81%) Audio ID : 2 Format : MPEG Audio Format version : Version 1 Format profile : Layer 3 Mode : Joint stereo Mode extension : MS Stereo Muxing mode : Header stripping Codec ID : A_MPEG/L3 Codec ID/Hint : MP3 Duration : 1h 58mn Bit rate mode : Constant Bit rate : 128 Kbps Channel(s) : 2 channels Sampling rate : 44.1 KHz Compression mode : Lossy Stream size : 109 MiB (17%) Title : Deadman[TDT] Writing library : LAME3.98.2 Language : Hindi















    Code:
    http://www.filesonic.com/file/2090397141/Eclipse_2010_BRRip_720p-(Hindi)_by_Deadman[TDT].mkv
    http://www.filesonic.com/file/2090397651/New_Moon_2009_BRRip_720p-(Hindi)_by_Deadman[TDT].mkv

    Code:
    http://www.wupload.com/file/196991571
    http://www.wupload.com/file/196991566

    Code:
    http://www.fileserve.com/file/ZuMNZbp/Eclipse_2010_BRRip_720p-(Hindi)_by_Deadman[TDT].mkv
    http://www.fileserve.com/file/vz8mXpd/New_Moon_2009_BRRip_720p-(Hindi)_by_Deadman[TDT].mkv




 

 

Posting Permissions

  • You may not post new threads
  • You may not post replies
  • You may not post attachments
  • You may not edit your posts
  •