Results 1 to 1 of 1
  1. #1
    dR Rockers www.desirulez.net
    Join Date
    Aug 2011
    Posts
    5,859

    T

    Default Agneepath (1990) - 700MB - 1CDRip - XVID - MP3 - Subs - TDBB

    Follow us on Social Media













    Agneepath 1990 - 1 CDRip - XVID - MP 3 - Subs - Alice - TDBB

















    Code:
    Code:
    Source: Own TDBB Sony DVD-9 original! Uncut version!
    
    
    
    Format                           : AVI
    Format/Info                      : Audio Video Interleave
    File size                        : 698 MiB
    
    
    
    
    Video
    ID                               : 0
    Format                           : MPEG-4 Visual
    Format profile                   : Advanced [email protected]
    Format settings, BVOP            : 1
    Format settings, QPel            : No
    Format settings, GMC             : No warppoints
    Format settings, Matrix          : Custom
    Codec ID                         : XVID
    Codec ID/Hint                    : XviD
    
    
    Bit rate                         : 510 Kbps
    Width                            : 656 pixels
    Height                           : 352 pixels
    Display aspect ratio             : 1.864
    Frame rate                       : 25.000 fps
    Color space                      : YUV
    Chroma subsampling               : 4:2:0
    Bit depth                        : 8 bits
    Scan type                        : Progressive
    Compression mode                 : Lossy
    Bits/(Pixel*Frame)               : 0.088
    Stream size                      : 610 MiB (87%)
    Writing library                  : XviD 63
    
    Audio
    ID                               : 1
    Format                           : MPEG Audio
    Format version                   : Version 2
    Format profile                   : Layer 3
    Mode                             : Joint stereo
    Mode extension                   : MS Stereo
    Codec ID                         : 55
    Codec ID/Hint                    : MP3
    
    
    Bit rate mode                    : Variable
    Bit rate                         : 64.0 Kbps
    Channel(s)                       : 2 channels
    Sampling rate                    : 24.0 KHz
    Compression mode                 : Lossy
    Stream size                      : 73.0 MiB (10%)
    Alignment                        : Aligned on interle





    Code:
    http://www.fileserve.com/file/7fpRwQb/Agneepath_1990_-_1_CDRip_-_XVID_-_MP_3_-_Subs_-_Alice_-_TDBB.avi
    http://www.fileserve.com/file/2XenNMS/Agneepath_1990_-_1_CDRip_-_XVID_-_MP_3_-_Subs_-_Alice_-_TDBB.idx
    http://www.fileserve.com/file/pWYY7mt/Agneepath_1990_-_1_CDRip_-_XVID_-_MP_3_-_Subs_-_Alice_-_TDBB.sub
    Code:
    http://www.filesonic.com/file/2041694661/Agneepath 1990 - 1 CDRip - XVID - MP 3 - Subs - Alice - TDBB.avi
    http://www.filesonic.com/file/2041661934/Agneepath 1990 - 1 CDRip - XVID - MP 3 - Subs - Alice - TDBB.idx
    http://www.filesonic.com/file/2041661774/Agneepath 1990 - 1 CDRip - XVID - MP 3 - Subs - Alice - TDBB.sub
    Code:
    http://www.wupload.com/file/186771589/Agneepath 1990 - 1 CDRip - XVID - MP 3 - Subs - Alice - TDBB.avi
    http://www.wupload.com/file/186767815/Agneepath 1990 - 1 CDRip - XVID - MP 3 - Subs - Alice - TDBB.idx
    http://www.wupload.com/file/186767862/Agneepath 1990 - 1 CDRip - XVID - MP 3 - Subs - Alice - TDBB.sub

 

 

Posting Permissions

  • You may not post new threads
  • You may not post replies
  • You may not post attachments
  • You may not edit your posts
  •