Results 1 to 1 of 1
  1. #1
    dR Rockers www.desirulez.net
    Join Date
    Aug 2011
    Posts
    5,859

    T

    Default Chori Chori Chupke Chupke (2001) - 1.45GB - DVDRip - x264 - Ac3 - [TDBB]

    Follow us on Social Media










    Chori Chori Chupke Chupke 2 CD DVD Rip x264 Ac3 Adi Jawed [TDBB]

















    Code:
    General
    Complete name : \Chori Chori Chupke Chupke 2 CD DVD Rip x264 Adi Jawed [TDBB]
    Format : Matroska
    Format version : Version 2
    File size : 1.45 GiB
    Duration : 2h 45mn
    Overall bit rate : 1 254 Kbps
    Ripper : Adi Jawed

    Video
    ID : 1
    Format : AVC
    Format/Info : Advanced Video Codec
    Format profile : [email protected]
    Format settings, CABAC : Yes
    Format settings, ReFrames : 4 frames
    Codec ID : V_MPEG4/ISO/AVC
    Duration : 2h 45mn
    Bit rate : 1 124 Kbps
    Width : 640 pixels
    Height : 288 pixels
    Display aspect ratio : 2.222
    Frame rate : 29.970 fps
    Color space : YUV
    Chroma subsampling : 4:2:0
    Bit depth : 8 bits
    Scan type : Progressive
    Bits/(Pixel*Frame) : 0.203
    Stream size : 1.27 GiB (88%)

    Audio
    ID : 2
    Format : AC-3
    Format/Info : Audio Coding 3
    Mode extension : CM (complete main)
    Codec ID : A_AC3
    Duration : 2h 45mn
    Bit rate mode : Constant
    Bit rate : 128 Kbps
    Channel(s) : 2 channels
    Channel positions : Front: L R
    Sampling rate : 48.0 KHz
    Bit depth : 16 bits
    Compression mode : Lossy
    Stream size : 151 MiB (10%)



    Cast

    Salman Khan ... Raj Malhotra
    Rani Mukerji ... Priya Malhotra
    Preity Zinta ... Madhubala (Madhu)
    Amrish Puri ... Kailashnath Malhotra
    Dalip Tahil ... Ranjit Malhotra
    Farida Jalal ... Asha Malhotra
    Prem Chopra ... Dr. Balraj Chopra


    S
    Johnny Lever ... Pappu Bhai




























    SINGLE LINK


    Code:
    http://www.fileserve.com/file/rqwf9S4/Chori_Chori_Chupke_Chupke_x264_Adi_Jawed_[TDBB].mkv

    Code:
    http://www.filesonic.com/file/2078060231/Chori Chori Chupke Chupke x264 Adi Jawed [TDBB].mkv

    Code:
    http://www.wupload.com/file/194920849/Chori Chori Chupke Chupke x264 Adi Jawed [TDBB].mkv





    450MB LINKS


    Code:
    http://www.fileserve.com/file/WMeBEev/Chori_Chori_Chupke_Chupke_x264_Adi_Jawed_[TDBB].mkv.001
    http://www.fileserve.com/file/UCQJq6v/Chori_Chori_Chupke_Chupke_x264_Adi_Jawed_[TDBB].mkv.002
    http://www.fileserve.com/file/2QJQ5R6/Chori_Chori_Chupke_Chupke_x264_Adi_Jawed_[TDBB].mkv.003
    http://www.fileserve.com/file/aKDJZPk/Chori_Chori_Chupke_Chupke_x264_Adi_Jawed_[TDBB].mkv.004
    
    
    
    http://www.filesonic.com/file/2077803904/Chori Chori Chupke Chupke x264 Adi Jawed [TDBB].mkv.001
    http://www.filesonic.com/file/2077807974/Chori Chori Chupke Chupke x264 Adi Jawed [TDBB].mkv.002
    http://www.filesonic.com/file/2077803934/Chori Chori Chupke Chupke x264 Adi Jawed [TDBB].mkv.003
    http://www.filesonic.com/file/2077536014/Chori Chori Chupke Chupke x264 Adi Jawed [TDBB].mkv.004
    
    
    
    
    
    http://www.wupload.com/file/194873676/Chori Chori Chupke Chupke x264 Adi Jawed [TDBB].mkv.001
    http://www.wupload.com/file/194873678/Chori Chori Chupke Chupke x264 Adi Jawed [TDBB].mkv.002
    http://www.wupload.com/file/194873658/Chori Chori Chupke Chupke x264 Adi Jawed [TDBB].mkv.003
    http://www.wupload.com/file/194833637/Chori Chori Chupke Chupke x264 Adi Jawed [TDBB].mkv.004


 

 

Posting Permissions

  • You may not post new threads
  • You may not post replies
  • You may not post attachments
  • You may not edit your posts
  •