Results 1 to 1 of 1
  1. #1
    dR Rockers www.desirulez.net
    Join Date
    Aug 2011
    Posts
    5,859

    T

    Default Dil Se -(1998) - Music Videos - Untouched - DVD9 - NTSC - Ibraram -=DrC=-

    Follow us on Social Media












    Dil Se -(1998) - Music Videos - Untouched - DVD9 - NTSC - Ibraram -=DrC=-






















    Code:
    Code:
    Movie        : Dil Se -(1998)
    Imdb         : http://www.imdb.com/title/tt0164538/
    Distributor  : Eros
    Source       : DVD9 @ UDR 
    Ripper       : Ibraram @ DrC
    Size         : 1.15 GB
    Container    : Vobs Untouched
    Release Date : 21 August 1998 (India)
    Genre        : Drama | Romance | Musical  
    Director     : Mani Ratnam
    Writers      : Mani Ratnam (story), Sujatha (dialogue),Tigmanshu Dhulia (dialogue)
    Stars        : Shah Rukh Khan, Manisha Koirala and Preity Zinta
    User Rating  : 7/10
    Storyline

    Code:
    Code:
    Amar Varma, a producer for Indian news radio, meets an enigmatic woman at a railroad station 
    and then again at a hill station. He falls in love with her, but the woman, who calls herself Meghna, 
    rejects and leaves him although she seems to be interested. Later, Varma agrees to marry his family's 
    choice, Preeti. But suddenly Meghna is back, and what is the secret that she holds?
    Technical info:

    Code:
    Code:
    Format                                   : MPEG-PS
    
    Video
    ID                                       : 224 (0xE0)
    Format                                   : MPEG Video
    Format version                           : Version 2
    Format profile                           : [email protected]
    Format settings, BVOP                    : Yes
    Format settings, Matrix                  : Default
    Format settings, GOP                     : M=3, N=13
    Bit rate mode                            : Variable
    Bit rate                                 : 7 064 Kbps
    Maximum bit rate                         : 9 000 Kbps
    Width                                    : 720 pixels
    Height                                   : 480 pixels
    Display aspect ratio                     : 4:3
    Frame rate                               : 23.976 fps
    Standard                                 : NTSC
    Color space                              : YUV
    Chroma subsampling                       : 4:2:0
    Bit depth                                : 8 bits
    Scan type                                : Progressive
    Scan order                               : 2:3 Pulldown
    Compression mode                         : Lossy
    Bits/(Pixel*Frame)                       : 0.853
    Stream size                              : 333 MiB (92%)
    
    Audio
    ID                                       : 189 (0xBD)-128 (0x80)
    Format                                   : AC-3
    Format/Info                              : Audio Coding 3
    Mode extension                           : CM (complete main)
    Muxing mode                              : DVD-Video
    Bit rate mode                            : Constant
    Bit rate                                 : 448 Kbps
    Channel(s)                               : 6 channels
    Channel positions                        : Front: L C R, Side: L R, LFE
    Sampling rate                            : 48.0 KHz
    Bit depth                                : 16 bits
    Compression mode                         : Lossy
    Delay relative to video                  : -65ms
    Stream size                              : 21.1 MiB (6%)
    Track List:

    Code:
    Code:
    01 - Chayya Chayya - Dil Se -(1998) - Music Videos - Untouched - DVD9 - NTSC - Ibraram
    02 - Dil Se - Dil Se -(1998) - Music Videos - Untouched - DVD9 - NTSC - Ibraram
    03 - Satrangi Re - Dil Se -(1998) - Music Videos - Untouched - DVD9 - NTSC - Ibraram
    04 - Ae Ajnabi - Dil Se -(1998) - Music Videos - Untouched - DVD9 - NTSC - Ibraram
    05 - Jiya Jale - Dil Se -(1998) - Music Videos - Untouched - DVD9 - NTSC - Ibraram




































    Code:
    http://www.fileserve.com/file/7dHYQHP/01_-_Chayya_Chayya_-_Dil_Se_-(1998)_-_Music_Videos_-_Untouched_-_DVD9_-_NTSC_-_Ibraram.VOB
    http://www.fileserve.com/file/dRwzHJx/02_-_Dil_Se_-_Dil_Se_-(1998)_-_Music_Videos_-_Untouched_-_DVD9_-_NTSC_-_Ibraram.VOB
    http://www.fileserve.com/file/XgBew7z/03_-_Satrangi_Re_-_Dil_Se_-(1998)_-_Music_Videos_-_Untouched_-_DVD9_-_NTSC_-_Ibraram.VOB
    http://www.fileserve.com/file/H3jU3Dj/04_-_Ae_Ajnabi_-_Dil_Se_-(1998)_-_Music_Videos_-_Untouched_-_DVD9_-_NTSC_-_Ibraram.VOB
    http://www.fileserve.com/file/h9kUfKU/05_-_Jiya_Jale_-_Dil_Se_-(1998)_-_Music_Videos_-_Untouched_-_DVD9_-_NTSC_-_Ibraram.vob
    Code:
    http://www.filesonic.com/file/2074260504/01 - Chayya Chayya - Dil Se -(1998) - Music Videos - Untouched - DVD9 - NTSC - Ibraram.VOB
    http://www.filesonic.com/file/2074311661/02 - Dil Se - Dil Se -(1998) - Music Videos - Untouched - DVD9 - NTSC - Ibraram.VOB
    http://www.filesonic.com/file/2074330341/03 - Satrangi Re - Dil Se -(1998) - Music Videos - Untouched - DVD9 - NTSC - Ibraram.VOB
    http://www.filesonic.com/file/2074218861/04 - Ae Ajnabi - Dil Se -(1998) - Music Videos - Untouched - DVD9 - NTSC - Ibraram.VOB
    http://www.filesonic.com/file/2074285631/05 - Jiya Jale - Dil Se -(1998) - Music Videos - Untouched - DVD9 - NTSC - Ibraram.vob
    Code:
    http://www.wupload.com/file/194103648/01 - Chayya Chayya - Dil Se -(1998) - Music Videos - Untouched - DVD9 - NTSC - Ibraram.VOB
    http://www.wupload.com/file/194077887/02 - Dil Se - Dil Se -(1998) - Music Videos - Untouched - DVD9 - NTSC - Ibraram.VOB
    http://www.wupload.com/file/194120472/03 - Satrangi Re - Dil Se -(1998) - Music Videos - Untouched - DVD9 - NTSC - Ibraram.VOB
    http://www.wupload.com/file/194027766/04 - Ae Ajnabi - Dil Se -(1998) - Music Videos - Untouched - DVD9 - NTSC - Ibraram.VOB
    http://www.wupload.com/file/194041961/05 - Jiya Jale - Dil Se -(1998) - Music Videos - Untouched - DVD9 - NTSC - Ibraram.vob

 

 

Posting Permissions

  • You may not post new threads
  • You may not post replies
  • You may not post attachments
  • You may not edit your posts
  •