Results 1 to 1 of 1
  1. #1
    shawn rebecca
    Guest

    Default HBO Mayweather vs Ortiz DSR x264 R3lentless

    Follow us on Social Media







    HBO Mayweather vs Ortiz DSR x264 R3lentless


    The undefeated six-time world champion Floyd Mayweather Jr. faces WBC welterweight champion Victor Ortiz on September 17 at The MGM Grand in Las Vegas.
    Video -

    Format : MPEG-4
    Format profile : Base Media
    Writing library : x264 core 112
    File size : 1.37 GiB
    Duration : 53mn 20s
    Overall bit rate : 3 664 Kbps

    Format/Info : Advanced Video Codec
    Duration : 53mn 20s
    Bit rate : 3 507 Kbps
    Width : 720 pixels
    Height : 400 pixels
    Display aspect ratio : 16:9
    Frame rate mode : Constant
    Frame rate : 29.970 fps
    Resolution : 8 bits
    Colorimetry : 4:2:0
    Scan type : Progressive
    Bits/(Pixel*Frame) : 0.406
    Stream size : 1.31 GiB (96%)

    Audio -

    Format : AAC
    Format/Info : Advanced Audio Codec
    Format version : Version 4
    Codec ID : 40
    Duration : 53mn 20s

    Bit rate : 152 Kbps
    Channel(s) : 2 channels
    Channel positions : L R
    Sampling rate : 44.1 KHz
    Stream size : 58.0 MiB (4%)
    Note: Yes, this is the HBO broadcast.
    SinGLE LINKS

    Code:
    http://www.fileserve.com/file/e78sNF6/HBO.Mayweather.vs.Ortiz.DSR.x264-R3lentless.mp4
    Code:
    http://www.filesonic.com/file/2041798824/HBO.Mayweather.vs.Ortiz.DSR.x264-R3lentless.mp4
    1 GB LinKS

    Code:
    http://www.fileserve.com/file/kHJRA5A/HBO.Mayweather.vs.Ortiz.DSR.x264-R3lentless.part1.rar
    http://www.fileserve.com/file/6b9TQkU/HBO.Mayweather.vs.Ortiz.DSR.x264-R3lentless.part2.rar
    Code:
    http://www.filesonic.com/file/2041802654/HBO.Mayweather.vs.Ortiz.DSR.x264-R3lentless.part1.rar
    http://www.filesonic.com/file/2041793594/HBO.Mayweather.vs.Ortiz.DSR.x264-R3lentless.part2.rar

 

 

Posting Permissions

  • You may not post new threads
  • You may not post replies
  • You may not post attachments
  • You may not edit your posts
  •