Results 1 to 1 of 1
  1. #1
    dR Rockers www.desirulez.net
    Join Date
    Aug 2011
    Posts
    5,859

    T

    Default Khanjar The Knife (2003) - DVDRIP - XviD - MP3 - M2Tv

    Follow us on Social Media











    Quote:
    Code:
     
    Format : AVI 
    Format/Info : Audio Video Interleave 
    Format profile : OpenDML 
    File size : 1.08 GiB 
    Duration : 2h 7mn 
    Overall bit rate : 1 209 Kbps 
    Writing application : Lavf52.57.1 
     
    Video 
    ID : 0 
    Format : xvid 
    Codec ID : xvid 
    Duration : 2h 7mn 
    Bit rate : 97.0 Kbps 
    Width : 650 pixels 
    Height : 352 pixels 
    Display aspect ratio : 16:9 
    Frame rate : 29.970 fps 
    Bits/(Pixel*Frame) : 0.014 
    Stream size : 88.4 MiB (8%) 
     
    Audio 
    ID : 1 
    Format : MPEG Audio 
    Format version : Version 1 
    Format profile : Layer 3 
    Mode : Joint stereo 
    Mode extension : MS Stereo 
    Codec ID : 55 
    Codec ID/Hint : MP3 
    Duration : 7mn 48s 
    Bit rate mode : Constant 
    Bit rate : 192 Kbps 
    Channel(s) : 2 channels 
    Sampling rate : 44.1 KHz 
    Compression mode : Lossy 
    Stream size : 10.7 MiB (1%) 
    Alignment : Aligned on interleaves 
    Interleave, duration : 41 ms (1.24 video frame)







    Title Khanjar The Knife Year 2003
    Description Sunil Shetty, Tabu, Gulshan Grover, Mohan Joshi
    Director Chander Sharma
    Genre Film, Drama

    Year 2003


    The entire-post production work of the film Khanjar(The Knife) was completed at BR Dubbing Theater. The film stars Suniel Shetty, Tabbu, Gulshan Grover, Pankaj Dheer, Mohan Joshi, Trishna, Archana, Puran Singh and Laxmikant Berde. Other credits are: Screenplay and dialogues by S Khan, music by Amar Utpal, lyrics by Anand Bakshi and choreography by Chinni Prakash.









    Enjoy with JMY @ M2TV


    Code:
    http://www.fileserve.com/file/RYFHApF/Khanjar_The_Knife_2003_DVDRIP_XviD_-_M2Tv).avi
    Code:
    http://www.filesonic.com/file/1813253234/Khanjar The Knife 2003 DVDRIP XviD - M2Tv).avi
    Code:
    http://www.wupload.com/file/130021735/Khanjar The Knife 2003 DVDRIP XviD - M2Tv).avi


 

 

Posting Permissions

  • You may not post new threads
  • You may not post replies
  • You may not post attachments
  • You may not edit your posts
  •