Results 1 to 1 of 1
  1. #1
    dR Rockers www.desirulez.net
    Join Date
    Aug 2011
    Posts
    5,859

    T

    Default Zindagi Na Milegi Dobara - (2011) - Music Videos - Untouched - DVD9 - NTSC - Ibraram

    Follow us on Social Media










    Zindagi Na Milegi Dobara - (2011) - Music Videos - Untouched - DVD9 - NTSC - Ibraram -=DrC=-































    Code:
    :
    Movie : Zindagi Na Milegi Dobara - (2011) Imdb : http://www.imdb.com/title/tt1562872/ Distributor : EROS Source : DVD9 @ Team Dus (Thanks) Ripper : Ibraram @ DrC Size : 1.59 GB Container : Vobs Untouched Release Date : 15 July 2011 (India) Genre : Adventure | Comedy | Drama | Romance Director : Zoya Akhtar Writer : Iqbal Durrani Stars : Hrithik Roshan, Abhay Deol and Farhan Akhtar User Rating : 8.2/10

    Technical info:



    Code:
    Format                                   : MPEG-PS
    Overall bit rate                         : 6 705 Kbps
    
    Video
    ID                                       : 224 (0xE0)
    Format                                   : MPEG Video
    Format version                           : Version 2
    Format profile                           : [email protected]
    Format settings, BVOP                    : Yes
    Format settings, Matrix                  : Custom
    Format settings, GOP                     : M=3, N=15
    Duration                                 : 3mn 32s
    Bit rate mode                            : Variable
    Bit rate                                 : 5 867 Kbps
    Maximum bit rate                         : 8 000 Kbps
    Width                                    : 720 pixels
    Height                                   : 480 pixels
    Display aspect ratio                     : 16:9
    Frame rate                               : 23.976 fps
    Standard                                 : NTSC
    Color space                              : YUV
    Chroma subsampling                       : 4:2:0
    Bit depth                                : 8 bits
    Scan type                                : Progressive
    Scan order                               : 2:3 Pulldown
    Compression mode                         : Lossy
    Bits/(Pixel*Frame)                       : 0.708
    Stream size                              : 149 MiB (88%)
    
    Audio #1
    ID                                       : 189 (0xBD)-128 (0x80)
    Format                                   : AC-3
    Format/Info                              : Audio Coding 3
    Mode extension                           : ME (music and effects)
    Muxing mode                              : DVD-Video
    Duration                                 : 3mn 32s
    Bit rate mode                            : Constant
    Bit rate                                 : 448 Kbps
    Channel(s)                               : 6 channels
    Channel positions                        : Front: L C R, Side: L R, LFE
    Sampling rate                            : 48.0 KHz
    Bit depth                                : 16 bits
    Compression mode                         : Lossy
    Delay relative to video                  : -225ms
    Stream size                              : 11.4 MiB (7%)
    
    Audio #2
    ID                                       : 189 (0xBD)-129 (0x81)
    Format                                   : AC-3
    Format/Info                              : Audio Coding 3
    Mode extension                           : ME (music and effects)
    Muxing mode                              : DVD-Video
    Bit rate mode                            : Constant
    Bit rate                                 : 256 Kbps
    Channel(s)                               : 2 channels
    Channel positions                        : Front: L R
    Sampling rate                            : 48.0 KHz
    Bit depth                                : 16 bits
    Compression mode                         : Lossy
    Delay relative to video                  : -161ms


    Track List:

    Code:
    01 - Dil Dharkne Do - Zindagi Na Milegi Dobara - (2011) - Music Videos - Untouched - DVD9 - NTSC - Ibraram 02 - Ik Junoon (Paint It red) - Zindagi Na Milegi Dobara - (2011) - Music Videos - Untouched - DVD9 - NTSC - Ibraram 03 - Khabon Ke Parinde - Zindagi Na Milegi Dobara - (2011) - Music Videos - Untouched - DVD9 - NTSC - Ibraram 04 - Senorita - Zindagi Na Milegi Dobara - (2011) - Music Videos - Untouched - DVD9 - NTSC - Ibraram 05 - Der Lagi Lekin - Zindagi Na Milegi Dobara - (2011) - Music Videos - Untouched - DVD9 - NTSC - Ibraram 06 - Sooraj Ki Bahon Mein - Zindagi Na Milegi Dobara - (2011) - Music Videos - Untouched - DVD9 - NTSC - Ibraram 07 - Pighlay Neelam Sa - Zindagi Na Milegi Dobara - (2011) - Music Videos - Untouched - DVD9 - NTSC - Ibraram 08 - Ik Baat Honton Tak - Zindagi Na Milegi Dobara - (2011) - Music Videos - Untouched - DVD9 - NTSC - Ibraram 09 - Dil Akhir Tu Kyun Rota Hai - Zindagi Na Milegi Dobara - (2011) - Music Videos - Untouched - DVD9 - NTSC - Ibraram 10 - Toh Zinda Hai Tum - Zindagi Na Milegi Dobara - (2011) - Music Videos - Untouched - DVD9 - NTSC - Ibraram



































    Code:
    http://www.fileserve.com/file/Sf6bgg2/01_-_Dil_Dharkne_Do_-_Zindagi_Na_Milegi_Dobara_-_(2011)_-_Music_Videos_-_Untouched_-_DVD9_-_NTSC_-_Ibraram.VOB
    http://www.fileserve.com/file/Ky9XKcW/02_-_Ik_Junoon_(Paint_It_red)_-_Zindagi_Na_Milegi_Dobara_-_(2011)_-_Music_Videos_-_Untouched_-_DVD9_-_NTSC_-_Ibraram.VOB
    http://www.fileserve.com/file/m9ZMfwd/03_-_Khabon_Ke_Parinde_-_Zindagi_Na_Milegi_Dobara_-_(2011)_-_Music_Videos_-_Untouched_-_DVD9_-_NTSC_-_Ibraram.VOB
    http://www.fileserve.com/file/5ubD5mq/04_-_Senorita_-_Zindagi_Na_Milegi_Dobara_-_(2011)_-_Music_Videos_-_Untouched_-_DVD9_-_NTSC_-_Ibraram.VOB
    http://www.fileserve.com/file/AjGjQbu/05_-_Der_Lagi_Lekin_-_Zindagi_Na_Milegi_Dobara_-_(2011)_-_Music_Videos_-_Untouched_-_DVD9_-_NTSC_-_Ibraram.VOB
    http://www.fileserve.com/file/7RxQGzX/06_-_Sooraj_Ki_Bahon_Mein_-_Zindagi_Na_Milegi_Dobara_-_(2011)_-_Music_Videos_-_Untouched_-_DVD9_-_NTSC_-_Ibraram.VOB
    Code:
    http://www.filesonic.com/file/2023646921/01 - Dil Dharkne Do - Zindagi Na Milegi Dobara - (2011) - Music Videos - Untouched - DVD9 - NTSC - Ibraram.VOB
    http://www.filesonic.com/file/2024326301/02 - Ik Junoon (Paint It red) - Zindagi Na Milegi Dobara - (2011) - Music Videos - Untouched - DVD9 - NTSC - Ibraram.VOB
    http://www.filesonic.com/file/2024901971/03 - Khabon Ke Parinde - Zindagi Na Milegi Dobara - (2011) - Music Videos - Untouched - DVD9 - NTSC - Ibraram.VOB
    http://www.filesonic.com/file/2024689911/04 - Senorita - Zindagi Na Milegi Dobara - (2011) - Music Videos - Untouched - DVD9 - NTSC - Ibraram.VOB
    http://www.filesonic.com/file/2023669341/05 - Der Lagi Lekin - Zindagi Na Milegi Dobara - (2011) - Music Videos - Untouched - DVD9 - NTSC - Ibraram.VOB
    http://www.filesonic.com/file/2025600111/06 - Sooraj Ki Bahon Mein - Zindagi Na Milegi Dobara - (2011) - Music Videos - Untouched - DVD9 - NTSC - Ibraram.VOB
    Code:
    http://www.wupload.com/file/182407160/01 - Dil Dharkne Do - Zindagi Na Milegi Dobara - (2011) - Music Videos - Untouched - DVD9 - NTSC - Ibraram.VOB
    http://www.wupload.com/file/184181548/02 - Ik Junoon (Paint It red) - Zindagi Na Milegi Dobara - (2011) - Music Videos - Untouched - DVD9 - NTSC - Ibraram.VOB
    http://www.wupload.com/file/182727289/03 - Khabon Ke Parinde - Zindagi Na Milegi Dobara - (2011) - Music Videos - Untouched - DVD9 - NTSC - Ibraram.VOB
    http://www.wupload.com/file/182696924/04 - Senorita - Zindagi Na Milegi Dobara - (2011) - Music Videos - Untouched - DVD9 - NTSC - Ibraram.VOB
    http://www.wupload.com/file/182457879/05 - Der Lagi Lekin - Zindagi Na Milegi Dobara - (2011) - Music Videos - Untouched - DVD9 - NTSC - Ibraram.VOB
    http://www.wupload.com/file/182897484/06 - Sooraj Ki Bahon Mein - Zindagi Na Milegi Dobara - (2011) - Music Videos - Untouched - DVD9 - NTSC - Ibraram.VOB


 

 

Posting Permissions

  • You may not post new threads
  • You may not post replies
  • You may not post attachments
  • You may not edit your posts
  •