Results 1 to 1 of 1
  1. #1
    Banned www.desirulez.net
    Join Date
    May 2011
    Location
    Earth
    Posts
    606

    T

    Cool Oosaravelli Audio Launch Full Programme - YT - Rip [--EXTREME--]

    Follow us on Social Media







    Oosaravelli Audio Launch Full Programme - YT - Rip [--EXTREME--]

    Rip Info

    Code:
    General
    Complete name                    : Oosaravelli Audio Launch Full Programme - YT - Rip
    Format                           : Flash Video
    File size                        : 1.08 GiB
    Duration                         : 2h 40mn
    Overall bit rate                 : 966 Kbps
    Source                           : Youtube 
    Ripper                           : [--EXTREME--]
    Video
    Format                           : AVC
    Format/Info                      : Advanced Video Codec
    Format profile                   : [email protected]
    Format settings, CABAC           : Yes
    Format settings, ReFrames        : 3 frames
    Format settings, GOP             : M=1, N=34
    Codec ID                         : 7
    Duration                         : 2h 40mn
    Bit rate                         : 830 Kbps
    Width                            : 600 pixels
    Height                           : 480 pixels
    Display aspect ratio             : 5:4
    Frame rate mode                  : Constant
    Frame rate                       : 25.000 fps
    Color space                      : YUV
    Chroma subsampling               : 4:2:0
    Bit depth                        : 8 bits
    Scan type                        : Progressive
    Bits/(Pixel*Frame)               : 0.115
    Stream size                      : 954 MiB (86%)
    
    Audio
    Format                           : AAC
    Format/Info                      : Advanced Audio Codec
    Format profile                   : LC
    Codec ID                         : 10
    Duration                         : 2h 40mn
    Bit rate                         : 129 Kbps
    Channel(s)                       : 2 channels
    Channel positions                : Front: L R
    Sampling rate                    : 44.1 KHz
    Compression mode                 : Lossy
    Stream size                      : 148 MiB (13%)

    Screenshots















    Credits To :- [--EXTREME--]



    Single Link Downloads

    Code:
    http://www.wupload.com/file/186602471/Oosaravelli.Audio.Launch.Full.Programme.YT .Rip.By.SC.mp4

    Code:
    http://www.filesonic.com/file/2040845801/Oosaravelli.Audio.Launch.Full.Programme.YT .Rip.By.SC.mp4

    Code:
    http://www.filejungle.com/f/xQRh99/Oosaravelli.Audio.Launch.Full.Programme.YT .Rip.By.SC.mp4

    Code:
    http://www.filedino.com/l8uxk6o38snx


 

 

Posting Permissions

  • You may not post new threads
  • You may not post replies
  • You may not post attachments
  • You may not edit your posts
  •