Results 1 to 1 of 1
  1. #1
    dR Rockers www.desirulez.net
    Join Date
    Sep 2011
    Posts
    248

    Post Murder 2 - 2011 - 720p - BluRay - x264 - ac3 - ErSSP (DUS)

    Follow us on Social Media








    Murder 2 - 2011 - 720p - BluRay - x264 - ac3 - ErSSP (DUS)




    Code:
    General
    Ripper                                   : ErSSP
    Source                                   : BD @ DusWareHouse!!
    Unique ID                                : 233998740934742754342138800881782366707 (0xB00A84A9827DBE43BFD9421A0DFE21F3)
    Complete name                            : C:\Users\ErSSP\uTDownloads\Murder 2 - 2011 - 1080p Blu Ray-muxed.mkv
    Format                                   : Matroska
    Format version                           : Version 2
    File size                                : 2.00 GiB
    Duration                                 : 2h 7mn
    Overall bit rate                         : 2 250 Kbps
    Encoded date                             : UTC 2011-09-13 10:05:34
    Writing application                      : mkvmerge v4.9.1 ('Ich will') built on Jul 11 2011 23:53:15
    Writing library                          : libebml v1.2.1 + libmatroska v1.1.1
      
    Video
    ID                                       : 1
    Format                                   : AVC
    Format/Info                              : Advanced Video Codec
    Format profile                           : [email protected]
    Format settings, CABAC                   : Yes
    Format settings, ReFrames                : 4 frames
    Codec ID                                 : V_MPEG4/ISO/AVC
    Duration                                 : 2h 7mn
    Bit rate                                 : 1 800 Kbps
    Width                                    : 1 280 pixels
    Height                                   : 544 pixels
    Display aspect ratio                     : 2.35:1
    Frame rate                               : 24.000 fps
    Color space                              : YUV
    Chroma subsampling                       : 4:2:0
    Bit depth                                : 8 bits
    Scan type                                : Progressive
    Bits/(Pixel*Frame)                       : 0.108
    Stream size                              : 1.56 GiB (78%)
    Writing library                          : x264 core 116 r2074 2641b9e
    Encoding settings                        : cabac=1 / ref=3 /  deblock=1:0:0 / analyse=0x3:0x113 / me=hex / subme=7 / psy=1 /  psy_rd=1.00:0.00 / mixed_ref=1 / me_range=16 / chroma_me=1 / trellis=1 /  8x8dct=1 / cqm=0 / deadzone=21,11 / fast_pskip=1 / chroma_qp_offset=-2 /  threads=3 / sliced_threads=0 / nr=0 / decimate=1 / interlaced=0 /  bluray_compat=0 / constrained_intra=0 / bframes=3 / b_pyramid=2 /  b_adapt=1 / b_bias=0 / direct=1 / weightb=1 / open_gop=0 / weightp=2 /  keyint=250 / keyint_min=24 / scenecut=40 / intra_refresh=0 /  rc_lookahead=40 / rc=2pass / mbtree=1 / bitrate=1800 / ratetol=1.0 /  qcomp=0.60 / qpmin=0 / qpmax=69 / qpstep=4 / cplxblur=20.0 / qblur=0.5 /  ip_ratio=1.40 / aq=1:1.00
    Language                                 : English
      
    Audio
    ID                                       : 2
    Format                                   : AC-3
    Format/Info                              : Audio Coding 3
    Mode extension                           : CM (complete main)
    Codec ID                                 : A_AC3
    Duration                                 : 2h 7mn
    Bit rate mode                            : Constant
    Bit rate                                 : 448 Kbps
    Channel(s)                               : 6 channels
    Channel positions                        : Front: L C R, Side: L R, LFE
    Sampling rate                            : 48.0 KHz
    Bit depth                                : 16 bits
    Compression mode                         : Lossy
    Stream size                              : 408 MiB (20%)
    Language                                 : Hindi

    Screens












    Sample




    Code:
    http://www.fileserve.com/file/urXhxrd/Murder 2 - 2011 - 1080p Blu Ray-muxed.mkv
      
    http://www.filesonic.com/file/1998359781/Murder 2 - 2011 - 1080p Blu Ray-muxed.mkv
      
    http://www.wupload.com/file/176342386/Murder 2 - 2011 - 1080p Blu Ray-muxed.mkv

 

 

Posting Permissions

  • You may not post new threads
  • You may not post replies
  • You may not post attachments
  • You may not edit your posts
  •