Results 1 to 1 of 1
  1. #1
    shawn rebecca
    Guest

    Default TNA No Surrender 2011 HDTV

    Follow us on Social Media







    TNA No Surrender 2011 HDTV



    Code:
    TNA.No.Surrender.2011.HDTV.avi
    Format                           : AVI
    Format/Info                      : Audio Video Interleave
    Format profile                   : OpenDML
    File size                        : 1.60 GiB
    Duration                         : 2h 51mn
    Overall bit rate                 : 1 343 Kbps
    Writing application              : Lavf52.61.0
    
    Video
    ID                               : 0
    Format                           : MPEG-4 Visual
    Format profile                   : [email protected]
    Format settings, BVOP            : No
    Format settings, QPel            : No
    Format settings, GMC             : No warppoints
    Format settings, Matrix          : Default (H.263)
    Codec ID                         : XVID
    Codec ID/Hint                    : XviD
    Duration                         : 2h 51mn
    Bit rate                         : 479 Kbps
    Width                            : 704 pixels
    Height                           : 400 pixels
    Display aspect ratio             : 16:9
    Frame rate                       : 29.970 fps
    Color space                      : YUV
    Chroma subsampling               : 4:2:0
    Bit depth                        : 8 bits
    Scan type                        : Progressive
    Compression mode                 : Lossy
    Bits/(Pixel*Frame)               : 0.057
    Stream size                      : 586 MiB (36%)
    Writing library                  : XviD 1.2.1 (UTC 2008-12-04)
    
    Audio
    ID                               : 1
    Format                           : MPEG Audio
    Codec ID                         : 55
    Codec ID/Hint                    : MP3
    Duration                         : 2h 51mn
    Bit rate                         : 128 Kbps
    Channel(s)                       : 2 channels
    Sampling rate                    : 44.1 KHz
    Compression mode                 : Lossy
    Stream size                      : 88.6 KiB (0%)
    Alignment                        : Aligned on interleaves
    Interleave, duration             : 18859 ms (565.21 video frames)
    Single LInks

    Code:
    http://www.fileserve.com/file/sVaBcNY/TNA.No.Surrender.2011.HDTV.avi
    Code:
    http://www.filesonic.com/file/1957435434/TNA.No.Surrender.2011.HDTV.avi

 

 

Posting Permissions

  • You may not post new threads
  • You may not post replies
  • You may not post attachments
  • You may not edit your posts
  •