Results 1 to 1 of 1
  1. #1
    Banned www.desirulez.net
    Join Date
    Jun 2011
    Posts
    229

    T

    Default The Honeymooners 2005 Dual Audio [Hin-Eng]

    Follow us on Social Media








    The Honeymooners (2005) [Dual Audio] [Hindi-English] by imkhan -=[TDT]=-
















    General
    Complete name : The Honeymooners 2005 Dual Audio [Hin-Eng] by imkhan -=[TDT]=-.mkv
    Format : Matroska
    File size : 536 MiB
    Duration : 1h 25mn
    Overall bit rate : 872 Kbps
    Movie name : The Honeymooners 2005 Dual Audio [Hin-Eng] by imkhan -=[TDT]=-
    Encoded date : UTC 2011-09-02 16:09:45
    Writing application : mkvmerge v4.7.0 ('Just Like You Imagined') built on Apr 21 2011 01:13:14
    Writing library : libebml v1.2.0 + libmatroska v1.1.0




    Video
    ID : 1
    Format : AVC
    Format/Info : Advanced Video Codec
    Format profile : [email protected]
    Format settings, CABAC : Yes
    Format settings, ReFrames : 3 frames
    Muxing mode : Container [email protected]
    Codec ID : V_MPEG4/ISO/AVC
    Duration : 1h 25mn
    Bit rate : 626 Kbps
    Width : 808 pixels
    Height : 364 pixels
    Display aspect ratio : 2.220
    Frame rate : 25.000 fps
    Resolution : 24 bits
    Colorimetry : 4:2:0
    Scan type : Progressive
    Bits/(Pixel*Frame) : 0.085
    Stream size : 385 MiB (72%)
    Title : imkhan
    Writing library : x264 core 104 r1683 62997d6
    Encoding settings : cabac=1 / ref=3 / deblock=1:0:0 / analyse=0x3:0x133 / me=umh / subme=7 / psy=1 / psy_rd=1.00:0.00 / mixed_ref=1 / me_range=16 / chroma_me=1 / trellis=1 / 8x8dct=1 / cqm=0 / deadzone=21,11 / fast_pskip=1 / chroma_qp_offset=-2 / threads=6 / sliced_threads=0 / nr=0 / decimate=1 / interlaced=0 / constrained_intra=0 / bframes=3 / b_pyramid=0 / b_adapt=1 / b_bias=0 / direct=1 / weightb=1 / open_gop=0 / weightp=2 / keyint=240 / keyint_min=24 / scenecut=40 / intra_refresh=0 / rc_lookahead=40 / rc=crf / mbtree=1 / crf=22.0 / qcomp=0.60 / qpmin=10 / qpmax=51 / qpstep=4 / vbv_maxrate=720 / vbv_bufsize=660 / crf_max=0.0 / ip_ratio=1.40 / aq=1:1.00 / nal_hrd=none
    Language : Hindi





    Audio #1
    ID : 2
    Format : MPEG Audio
    Format version : Version 1
    Format profile : Layer 3
    Codec ID : A_MPEG/L3
    Codec ID/Hint : MP3
    Duration : 1h 25mn
    Bit rate mode : Constant
    Bit rate : 96.0 Kbps
    Channel(s) : 2 channels
    Sampling rate : 44.1 KHz
    Resolution : 16 bits
    Stream size : 59.0 MiB (11%)
    Title : imkhan
    Language : Hindi




    Audio #2
    ID : 3
    Format : MPEG Audio
    Format version : Version 1
    Format profile : Layer 3
    Codec ID : A_MPEG/L3
    Codec ID/Hint : MP3
    Duration : 1h 29mn
    Bit rate mode : Variable
    Bit rate : 133 Kbps
    Minimum bit rate : 128 Kbps
    Channel(s) : 2 channels
    Sampling rate : 44.1 KHz
    Resolution : 16 bits
    Stream size : 85.0 MiB (16%)
    Title : imkhan
    Writing library : LAME3.93a





    Orignal Hindi Audio















    Code:
    http://cramit.in/yc52ltjxhqtv
    or
    http://www.fileserve.com/file/akN3uwr
    or
    http://www.filesonic.com/file/1869498144/The Honeymooners 2005 Dual Audio [Hin-Eng] by imkhan -=[TDT]=-.mkv
    or
    http://www.wupload.com/file/141771728/The Honeymooners 2005 Dual Audio [Hin-Eng] by imkhan -=[TDT]=-.mkv



 

 

Posting Permissions

  • You may not post new threads
  • You may not post replies
  • You may not post attachments
  • You may not edit your posts
  •