Results 1 to 1 of 1
  1. #1
    Banned www.desirulez.net
    Join Date
    Sep 2011
    Posts
    239

    Default Paul (2011) DVDRip Dual Audio Hindi English x264 TeamTNT

    Follow us on Social Media





    Paul (2011) DVDRip Dual Audio Hindi English x264 TeamTNT




    Info :

    Code:
    R 104 min - Adventure | Comedy | Sci-Fi - 18 March 2011 (USA)
    
    Ratings: 7.1/10 from 46,188 users Metascore: 57/100 
    Reviews: 207 user | 270 critic | 37 from Metacritic
    
    Two British comic-book geeks traveling across the U.S. encounter an alien outside Area 51.
    
    Director:
    Greg Mottola
    Writers:
    Nick Frost, Simon Pegg
    Stars:
    Simon Pegg, Nick Frost and Seth Rogen
    Description :.................................................
    
    Quote:
    General
    Complete name : Paul (2011) IN HINDI DVDRip Dual Audio [Hin-Eng] [CRYME.0007] - TeamTNT.mkv
    Format : Matroska
    Format version : Version 2
    File size : 785 MiB
    Duration : 1h 39mn
    Overall bit rate : 1 104 Kbps
    Encoded date : UTC 2011-09-05 16:21:44
    Writing application : mkvmerge v4.8.0 ('I Got The...') built on May 24 2011 03:12:58
    Writing library : libebml v1.2.0 + libmatroska v1.1.0
    
    Video
    ID : 2
    Format : MPEG-4 Visual
    Format profile : Advanced [email protected]
    Format settings, BVOP : Yes
    Format settings, QPel : No
    Format settings, GMC : No warppoints
    Format settings, Matrix : Default (H.263)
    Codec ID : XVID
    Codec ID/Hint : XviD
    Duration : 1h 39mn
    Bit rate : 826 Kbps
    Width : 640 pixels
    Height : 272 pixels
    Display aspect ratio : 2.35:1
    Frame rate : 25.000 fps
    Color space : YUV
    Chroma subsampling : 4:2:0
    Bit depth : 8 bits
    Scan type : Progressive
    Compression mode : Lossy
    Bits/(Pixel*Frame) : 0.190
    Stream size : 587 MiB (75%)
    Title : [CRYME.0007] - TeamTNT
    Writing library : XviD 62
    Language : Hindi
    
    Audio #1
    ID : 1
    Format : MPEG Audio
    Format version : Version 1
    Format profile : Layer 2
    Muxing mode : Header stripping
    Codec ID : A_MPEG/L2
    Codec ID/Hint : MP2
    Duration : 1h 39mn
    Bit rate mode : Constant
    Bit rate : 128 Kbps
    Channel(s) : 2 channels
    Sampling rate : 48.0 KHz
    Compression mode : Lossy
    Delay relative to video : 48ms
    Stream size : 91.0 MiB (12%)
    Title : [CRYME.0007] - TeamTNT
    Language : Hindi
    
    Audio #2
    ID : 3
    Format : MPEG Audio
    Format version : Version 1
    Format profile : Layer 3
    Mode : Joint stereo
    Mode extension : MS Stereo
    Muxing mode : Header stripping
    Codec ID : A_MPEG/L3
    Codec ID/Hint : MP3
    Duration : 1h 40mn
    Bit rate mode : Variable
    Bit rate : 128 Kbps
    Channel(s) : 2 channels
    Sampling rate : 48.0 KHz
    Compression mode : Lossy
    Stream size : 91.8 MiB (12%)
    Title : [CRYME.0007] - TeamTNT
    Writing library : LAME3.90.
    Encoding settings : -m j -V 4 -q 2 -lowpass 17.6 --abr 128
    Language : English
    Screen :






    Code:
    http://www.wupload.com/file/144036405/Paul_(2011)_IN_HINDI_DVDRip_Dual_Audio_[Hin-Eng]_[CRYME.0007]_-_TeamTNT.mkv

 

 

Posting Permissions

  • You may not post new threads
  • You may not post replies
  • You may not post attachments
  • You may not edit your posts
  •