Results 1 to 1 of 1
  1. #1
    dR Dazzler www.desirulez.net
    Join Date
    Jul 2011
    Posts
    641

    T

    Default Bodyguard (2011)

    Follow us on Social Media







    Code:
    Movie : BodyGuard
    Year : 2011
    IMDB : http://www.imdb.com/title/tt1729637/
    Cast : Salman Kahan, Kareena Kapoor
    
    Format : AVI
    Format/Info : Audio Video Interleave
    File size : 890 MiB
    Duration : 2h 8mn
    Overall bit rate : 966 Kbps
    
    Video
    ID : 0
    Format : MPEG-4 Visual
    Format profile : Advanced [email protected]
    Format settings, BVOP : 2
    Format settings, QPel : Yes
    Format settings, GMC : No warppoints
    Format settings, Matrix : Default (MPEG)
    Codec ID : XVID
    Codec ID/Hint : XviD
    Duration : 2h 8mn
    Bit rate : 877 Kbps
    Width : 640 pixels
    Height : 272 pixels
    Display aspect ratio : 2.35:1
    Frame rate : 23.976 fps
    Color space : YUV
    Chroma subsampling : 4:2:0
    Bit depth : 8 bits
    Scan type : Progressive
    Compression mode : Lossy
    Bits/(Pixel*Frame) : 0.210
    Stream size : 808 MiB (91%)
    Writing library : XviD 1.2.1 (UTC 2008-12-04)
    
    Audio
    ID : 1
    Format : MPEG Audio
    Format version : Version 1
    Format profile : Layer 3
    Mode : Joint stereo
    Mode extension : MS Stereo
    Codec ID : 55
    Codec ID/Hint : MP3
    Duration : 2h 8mn
    Bit rate mode : Constant
    Bit rate : 80.0 Kbps
    Channel(s) : 2 channels
    Sampling rate : 32.0 KHz
    Compression mode : Lossy
    Stream size : 73.7 MiB (8%)
    Alignment : Aligned on interleaves
    Interleave, duration : 42 ms (1.00 video frame)
    Writing library : LAME3.98r





    SAMPLE:-
    Code:
    http://www.4shared.com/video/7VRS7-VJ/Bodyguard_Rip2_-_Sample.html

    Single File (Size: 889.89 MB)


    Code:
    http://www.fileserve.com/file/wCzpnbd/Bodyguard2011_-_1-5-DVDscr-XviD-Esubs-890MB-ExD-XMR.avi
    
    or
    
    http://www.filesonic.com/file/1852809034/Bodyguard2011_-_1-5-DVDscr-XviD-Esubs-890MB-ExD-XMR.avi
    
    or
    
    http://www.wupload.com/file/139153811/Bodyguard2011_-_1-5-DVDscr-XviD-Esubs-890MB-ExD-XMR.avi
    HIT THANKS

 

 

Posting Permissions

  • You may not post new threads
  • You may not post replies
  • You may not post attachments
  • You may not edit your posts
  •