Results 1 to 1 of 1
  1. #1
    Banned www.desirulez.net
    Join Date
    Sep 2011
    Posts
    239

    T

    Default Bluffmaster (2005) - 2.18GB - 720p - 1/2 - DvDRiP - XviD - 5.1 - AC3 - [Team DUS]

    Follow us on Social Media







    Bluffmaster (2005) 720p 1/2 DvD RiP XviD 5.1 AC3 [Team DUS]




    Code:
    Source                           : DvD 9 @ DUS WareHouse!!!!
    Ripper                           : I Proud To Be An Indian [Team DUS]
    General
    Complete name                    : D:\Ripping\Bluffmaster (2005) 720p DvD RiP XviD 5.1 AC3 [Team DUS]\Bluffmaster (2005) 720p DvD RiP XviD 5.1 AC3 [Team DUS].avi
    Format                           : AVI
    Format/Info                      : Audio Video Interleave
    Format profile                   : OpenDML
    Format settings                  : rec
    File size                        : 2.18 GiB
    Duration                         : 2h 15mn
    Overall bit rate                 : 2 311 Kbps
    Writing application              : AVI-Mux GUI 1.17.8.3, Feb 16 201019:42:50
    
    Video
    ID                               : 0
    Format                           : MPEG-4 Visual
    Format profile                   : Advanced [email protected]
    Format settings, BVOP            : 2
    Format settings, QPel            : Yes
    Format settings, GMC             : No warppoints
    Format settings, Matrix          : Default (H.263)
    Codec ID                         : XVID
    Codec ID/Hint                    : XviD
    Duration                         : 2h 15mn
    Bit rate                         : 1 858 Kbps
    Width                            : 1 288 pixels
    Height                           : 544 pixels
    Display aspect ratio             : 2.35:1
    Frame rate                       : 23.976 fps
    Color space                      : YUV
    Chroma subsampling               : 4:2:0
    Bit depth                        : 8 bits
    Scan type                        : Progressive
    Compression mode                 : Lossy
    Bits/(Pixel*Frame)               : 0.111
    Stream size                      : 1.75 GiB (80%)
    Writing library                  : XviD 1.2.1 (UTC 2008-12-04)
    
    Audio
    ID                               : 1
    Format                           : AC-3
    Format/Info                      : Audio Coding 3
    Mode extension                   : CM (complete main)
    Codec ID                         : 2000
    Duration                         : 2h 15mn
    Bit rate mode                    : Constant
    Bit rate                         : 448 Kbps
    Channel(s)                       : 6 channels
    Channel positions                : Front: L C R, Side: L R, LFE
    Sampling rate                    : 48.0 KHz
    Bit depth                        : 16 bits
    Compression mode                 : Lossy
    Stream size                      : 433 MiB (19%)
    Alignment                        : Aligned on interleaves
    Interleave, duration             : 64 ms (1.53 video frames)
    Interleave, preload duration     : 2688 ms
    Title                            : VTS_02_1 T80 3_2ch 448Kbps DELAY 2686ms

















    SINGLE LINK
    Code:
    http://www.filesonic.com/file/1819497811/Bluffmaster_(2005)_720p_DvD_RiP_XviD_5.1_AC3_[Team_DUS].avi
    Code:
    http://www.wupload.com/file/131547201/Bluffmaster_(2005)_720p_DvD_RiP_XviD_5.1_AC3_[Team_DUS].avi
    600MB LINKS
    Code:
    http://www.wupload.com/file/131547427/Bluffmaster (2005) 720p DvD RiP XviD 5.1 AC3 SUBS [Team DUS].rar
    http://www.wupload.com/file/131547851/Bluffmaster (2005) 720p DvD RiP XviD 5.1 AC3 [Team DUS].avi.001
    http://www.wupload.com/file/131547870/Bluffmaster (2005) 720p DvD RiP XviD 5.1 AC3 [Team DUS].avi.002
    http://www.wupload.com/file/131547871/Bluffmaster (2005) 720p DvD RiP XviD 5.1 AC3 [Team DUS].avi.003
    http://www.wupload.com/file/131547869/Bluffmaster (2005) 720p DvD RiP XviD 5.1 AC3 [Team DUS].avi.004

 

 

Posting Permissions

  • You may not post new threads
  • You may not post replies
  • You may not post attachments
  • You may not edit your posts
  •