Results 1 to 1 of 1
  1. #1
    Banned www.desirulez.net
    Join Date
    Sep 2011
    Posts
    239

    T

    Default Monica (2011) - 2.2 GB - DVDRIP - Upscaled - 720P - X264 - AC3 5.1 - ESUB - Team HD

    Follow us on Social Media









    Presents





    Info:



    Code:
         General
    Format                           : Matroska
    Format version                   : Version 2
    File size                        : 2.20 GiB
    Duration                         : 1h 59mn
    Overall bit rate                 : 2 644 Kbps
    Encoded date                     : UTC 2011-08-28 04:16:13
    Writing application              : mkvmerge v4.8.0 ('I Got The...') built on May 24 2011 03:12:58
    Writing library                  : libebml v1.2.0 + libmatroska v1.1.0
    
    Video
    ID                               : 1
    Format                           : AVC
    Format/Info                      : Advanced Video Codec
    Format profile                   : [email protected]
    Format settings, CABAC           : Yes
    Format settings, ReFrames        : 1 frame
    Codec ID                         : V_MPEG4/ISO/AVC
    Duration                         : 1h 59mn
    Bit rate                         : 2 173 Kbps
    Width                            : 1 280 pixels
    Height                           : 540 pixels
    Display aspect ratio             : 2.35:1
    Frame rate                       : 29.970 fps
    Color space                      : YUV
    Chroma subsampling               : 4:2:0
    Bit depth                        : 8 bits
    Scan type                        : Progressive
    Bits/(Pixel*Frame)               : 0.105
    Stream size                      : 1.79 GiB (81%)
    Writing library                  : x264 core 115 r1995 c1e60b9
    Encoding settings                : cabac=1 / ref=1 / deblock=1:0:0 / analyse=0x1:0x111 / me=hex / subme=5 / psy=1 / psy_rd=1.00:0.00 / mixed_ref=0 / me_range=16 / chroma_me=1 / trellis=0 / 8x8!!!=0 / cqm=0 / deadzone=21,11 / fast_pskip=1 / chroma_qp_offset=0 / threads=12 / sliced_threads=0 / nr=0 / decimate=1 / interlaced=0 / bluray_compat=0 / constrained_intra=0 / bframes=0 / weightp=2 / keyint=250 / keyint_min=25 / scenecut=40 / intra_refresh=0 / rc_lookahead=40 / rc=abr / mbtree=1 / bitrate=2173 / ratetol=1.0 / qcomp=0.60 / qpmin=10 / qpmax=51 / qpstep=4 / ip_ratio=1.40 / aq=1:1.00
    Language                         : English
    
    Audio
    ID                               : 2
    Format                           : AC-3
    Format/Info                      : Audio Coding 3
    Mode extension                   : CM (complete main)
    Codec ID                         : A_AC3
    Duration                         : 1h 59mn
    Bit rate mode                    : Constant
    Bit rate                         : 448 Kbps
    Channel(s)                       : 6 channels
    Channel positions                : Front: L C R, Side: L R, LFE
    Sampling rate                    : 48.0 KHz
    Bit depth                        : 16 bits
    Compression mode                 : Lossy
    Stream size                      : 382 MiB (17%)
    Title                            : Striker
    Language                         : Hindi
    
    Text
    ID                               : 3
    Format                           : VobSub
    Muxing mode                      : zlib
    Codec ID                         : S_VOBSUB
    Codec ID/Info                    : The same subtitle format used on DVDs
    Title                            : Striker
    Language                         : English

    Screen SnapS














    RiPpers NoTe:

    Enjoy Its TEAM HD!!!

    SINGLE LINK
    Code:
    http://www.wupload.com/file/131548455/Monica DVDRIP Upscaled 720P X264 Untouch AC3 5.1 ESUB Striker Team HD.mkv
    600MB LINKS
    Code:
    http://www.wupload.com/file/131548462/Monica DVDRIP Upscaled 720P X264 Untouch AC3 5.1 ESUB Striker Team HD.mkv.001
    http://www.wupload.com/file/131548463/Monica DVDRIP Upscaled 720P X264 Untouch AC3 5.1 ESUB Striker Team HD.mkv.002
    http://www.wupload.com/file/131548464/Monica DVDRIP Upscaled 720P X264 Untouch AC3 5.1 ESUB Striker Team HD.mkv.003
    http://www.wupload.com/file/131548465/Monica DVDRIP Upscaled 720P X264 Untouch AC3 5.1 ESUB Striker Team HD.mkv.004
    Code:
    http://www.filesonic.com/file/1819519161/Monica DVDRIP Upscaled 720P X264 Untouch AC3 5.1 ESUB Striker Team HD.mkv.001
    http://www.filesonic.com/file/1819519191/Monica DVDRIP Upscaled 720P X264 Untouch AC3 5.1 ESUB Striker Team HD.mkv.002
    http://www.filesonic.com/file/1819519261/Monica DVDRIP Upscaled 720P X264 Untouch AC3 5.1 ESUB Striker Team HD.mkv.003
    http://www.filesonic.com/file/1819519291/Monica DVDRIP Upscaled 720P X264 Untouch AC3 5.1 ESUB Striker Team HD.mkv.004

 

 

Posting Permissions

  • You may not post new threads
  • You may not post replies
  • You may not post attachments
  • You may not edit your posts
  •