Results 1 to 2 of 2
  1. #1
    Banned www.desirulez.net
    Join Date
    Sep 2011
    Posts
    239

    T

    Default Major Saab (1998) DvD-RiP - XviD - 2.04 GB - AVI

    Follow us on Social Media









    Major Saab (1998) DvD-RiP - XviD - 2.04 GB - AVI




    Action | Drama | Romance

    Hindi

    Code:
    Virendra Pratap Singh lives a wealthy, yet careless lifestyle in India. When his father passes away, he hopes to inherit the entire estate and wealth, but is unable to do so due to a stipulation in the will that he must join a military academy as per family traditions, and failure to do so may forfeit his claim to this inheritance. He reluctantly joins the National Defence Academy, expects to break every possible rule, and be discharged. His training officer is Major Jasbir Singh Rana, who takes it upon himself not to discharge Virendra under any circumstance, even when Virendra runs away twice. Then Virendra's plans change when he meets with and falls in love with Nisha, who lives a very wealthy lifestyle with her gangster brother, Shankar. Virendra decides to continue training so that he can be close to Nisha, however, Shankar has other plans for Nisha as he wants to get wed to fellow-gangster...

    Amitabh Bachchan, Ajay Devgan, Sonali Bendre, Nafisa Ali, Mohan Joshi, Ashish Vidyarthi, Shahbaaz Khan, Navin Nischol,


    Code:
    General
    Complete name                    : Major Saab.1998_2,04GB.avi
    Format                           : AVI
    Format/Info                      : Audio Video Interleave
    Format profile                   : OpenDML
    Format settings                  : rec
    File size                        : 2.05 GiB
    Duration                         : 2h 38mn
    Overall bit rate                 : 1 853 Kbps
    Writing application              : AVI-Mux GUI 1.17.7, Aug  8 2006  20:59:17
    
    Video
    ID                               : 0
    Format                           : MPEG-4 Visual
    Format profile                   : Advanced [email protected]
    Format settings, BVOP            : 2
    Format settings, QPel            : No
    Format settings, GMC             : No warppoints
    Format settings, Matrix          : Default (H.263)
    Codec ID                         : XVID
    Codec ID/Hint                    : XviD
    Duration                         : 2h 38mn
    Bit rate                         : 1 464 Kbps
    Width                            : 704 pixels
    Height                           : 352 pixels
    Display aspect ratio             : 2.000
    Frame rate                       : 23.976 fps
    Color space                      : YUV
    Chroma subsampling               : 4:2:0
    Bit depth                        : 8 bits
    Scan type                        : Progressive
    Compression mode                 : Lossy
    Bits/(Pixel*Frame)               : 0.246
    Stream size                      : 1.62 GiB (79%)
    Writing library                  : XviD 1.2.1 (UTC 2008-12-04)
    
    Audio
    ID                               : 1
    Format                           : AC-3
    Format/Info                      : Audio Coding 3
    Mode extension                   : CM (complete main)
    Codec ID                         : 2000
    Duration                         : 2h 38mn
    Bit rate mode                    : Constant
    Bit rate                         : 384 Kbps
    Channel(s)                       : 6 channels
    Channel positions                : Front: L C R, Side: L R, LFE
    Sampling rate                    : 48.0 KHz
    Bit depth                        : 16 bits
    Compression mode                 : Lossy
    Stream size                      : 434 MiB (21%)
    Alignment                        : Aligned on interleaves
    Interleave, duration             : 64 ms (1.53 video frames)
    Interleave, preload duration     : 192 ms
    Title                            : saab T80 3_2ch 384Kbps DELAY 0ms



    Code:
    http://www.fileserve.com/file/GB6PNqG/Major Saab.1998_2,04GB.avi
    Code:
    http://www.filesonic.com/file/1821470311/Major_Saab.1998_2,04GB.avi
    Code:
    http://www.wupload.com/file/132467228/Major_Saab.1998_2,04GB.avi
    Code:
    http://cramit.in/zes5e43db55b

  2. #2

    Default

    good

 

 

Posting Permissions

  • You may not post new threads
  • You may not post replies
  • You may not post attachments
  • You may not edit your posts
  •