Results 1 to 1 of 1
  1. #1
    Hot Member www.desirulez.net
    Join Date
    Feb 2011
    Location
    Bulletproof IP
    Posts
    1,189

    T

    Thumbs up Bodyguard (2011) - 1/5 DVDscr - XviD - Esubs - 890MB [ExD|XMR]

    Follow us on Social Media







    Bodyguard (2011)
    1/5 DVDscr - XviD - Esubs - 890MB [ExD|XMR]


    Code:
    Movie : BodyGuard
    Year : 2011
    IMDB : http://www.imdb.com/title/tt1729637/
    Cast : Salman Kahan, Kareena Kapoor
    
    Ripper : Ajit @ ExD|XMR
    Size : 890MB(1/5 DVD)
    Source : DUS(Thanx!)
    Runtime : 2hrs 08min 46Sec
    Subtitles : English
    Sample : http://www.4shared.com/video/7VRS7-VJ/Bodyguard_Rip2_-_Sample.html
    
    Format : AVI
    Format/Info : Audio Video Interleave
    File size : 890 MiB
    Duration : 2h 8mn
    Overall bit rate : 966 Kbps
    
    Video
    ID : 0
    Format : MPEG-4 Visual
    Format profile : Advanced [email protected]
    Format settings, BVOP : 2
    Format settings, QPel : Yes
    Format settings, GMC : No warppoints
    Format settings, Matrix : Default (MPEG)
    Codec ID : XVID
    Codec ID/Hint : XviD
    Duration : 2h 8mn
    Bit rate : 877 Kbps
    Width : 640 pixels
    Height : 272 pixels
    Display aspect ratio : 2.35:1
    Frame rate : 23.976 fps
    Color space : YUV
    Chroma subsampling : 4:2:0
    Bit depth : 8 bits
    Scan type : Progressive
    Compression mode : Lossy
    Bits/(Pixel*Frame) : 0.210
    Stream size : 808 MiB (91%)
    Writing library : XviD 1.2.1 (UTC 2008-12-04)
    
    Audio
    ID : 1
    Format : MPEG Audio
    Format version : Version 1
    Format profile : Layer 3
    Mode : Joint stereo
    Mode extension : MS Stereo
    Codec ID : 55
    Codec ID/Hint : MP3
    Duration : 2h 8mn
    Bit rate mode : Constant
    Bit rate : 80.0 Kbps
    Channel(s) : 2 channels
    Sampling rate : 32.0 KHz
    Compression mode : Lossy
    Stream size : 73.7 MiB (8%)
    Alignment : Aligned on interleaves
    Interleave, duration : 42 ms (1.00 video frame)
    Writing library : LAME3.98r
    Enjoy! XMR Encode! Bitrate optimized 4 stutter-free performance on Stand-alone DVD Players, work on bright spots and overall colour balancing.











    All Credits Goes To ExD|XMR (Thanks)

    Single File (Size: 889.89 MB)

    Code:
    http://www.fileserve.com/file/NTADQZU/Bodyguard2011_-_1-5-DVDscr-XviD-Esubs-890MB-ExD-XMR.avi
    
    or
    
    http://www.filesonic.com/file/1931236271/Bodyguard2011_-_1-5-DVDscr-XviD-Esubs-890MB-ExD-XMR.avi
    
    or
    
    http://www.wupload.com/file/159883630/Bodyguard2011_-_1-5-DVDscr-XviD-Esubs-890MB-ExD-XMR.avi
    English Subtitles

    Code:
    http://www.fileserve.com/file/EyaQaFd/Bodyguard2011_-_1-5-DVDscr-XviD-Esubs-890MB-ExD-XMR.srt
    
    or
    
    http://www.filesonic.com/file/1852872904/Bodyguard2011_-_1-5-DVDscr-XviD-Esubs-890MB-ExD-XMR.srt
    
    or
    
    http://www.wupload.com/file/139136365/Bodyguard2011_-_1-5-DVDscr-XviD-Esubs-890MB-ExD-XMR.srt
    If file removed...just reply here, i can Re-upload it any time
    Last edited by X_Man; 09-11-2011 at 12:52 PM. Reason: New Links added

 

 

Posting Permissions

  • You may not post new threads
  • You may not post replies
  • You may not post attachments
  • You may not edit your posts
  •