Results 1 to 1 of 1
  1. #1
    Banned www.desirulez.net
    Join Date
    Sep 2011
    Posts
    239

    T

    Default Zabardast {2011} - Hyderabadi Movie - DVDRip - 1CD - Xvid - MP3

    Follow us on Social Media







    Zabardast {2011} - Hyderabadi Movie - DVDRip - 1CD - Xvid - MP3



    Code:
    General
    Complete name : Zabardast (2011) - Hyderabadi Movie - DVDRip - 1CD - Xvid - MP3 - ragz4ragz.avi
    Format : AVI
    Format/Info : Audio Video Interleave
    File size : 696 MiB
    Duration : 1h 38mn
    Overall bit rate : 987 Kbps
    Encoder : ragz4ragz
    Source : DVD9 @ [--EXTREME--]
    
    Video
    ID : 0
    Format : MPEG-4 Visual
    Format profile : [email protected]
    Format settings, BVOP : Yes
    Format settings, QPel : No
    Format settings, GMC : No warppoints
    Format settings, Matrix : Default (H.263)
    Codec ID : XVID
    Codec ID/Hint : XviD
    Duration : 1h 38mn
    Bit rate : 861 Kbps
    Width : 720 pixels
    Height : 396 pixels
    Display aspect ratio : 16:9
    Frame rate : 29.970 fps
    Resolution : 24 bits
    Colorimetry : 4:2:0
    Scan type : Progressive
    Bits/(Pixel*Frame) : 0.101
    Stream size : 607 MiB (87%)
    Writing library : XviD 1.2.1 (UTC 2008-12-04)
    
    Audio
    ID : 1
    Format : MPEG Audio
    Format version : Version 1
    Format profile : Layer 3
    Codec ID : 55
    Codec ID/Hint : MP3
    Duration : 1h 38mn
    Bit rate mode : Constant
    Bit rate : 112 Kbps
    Channel(s) : 2 channels
    Sampling rate : 48.0 KHz
    Resolution : 16 bits
    Stream size : 78.9 MiB (11%)
    Alignment : Split accross interleaves
    Interleave, duration : 24 ms (0.72 video frame)
    Writing library : LAME3.98.4

















    Code:
    http://www.filesonic.com/file/1850742371/Zabardast.2011.Hyderabadi.Movie.DVDRip.1CD.Xvid.MP3.avi

    Code:
    http://www.fileserve.com/file/4v4neZ4/Zabardast.2011.Hyderabadi.Movie.DVDRip.1CD.Xvid.MP3.avi

    Code:
    http://www.wupload.com/file/138816212/Zabardast.2011.Hyderabadi.Movie.DVDRip.1CD.Xvid.MP3.avi

 

 

Posting Permissions

  • You may not post new threads
  • You may not post replies
  • You may not post attachments
  • You may not edit your posts
  •