Results 1 to 2 of 2
  1. #1
    dR Contributor www.desirulez.net
    Join Date
    Jan 2011
    Posts
    2,299

    T

    Smile Chammak Chalo - RaOne - HD - Video Song

    Follow us on Social Media










    Format : MPEG-4
    Format profile : Base Media / Version 2
    Codec ID : mp42
    File size : 62.7 MiB
    Duration : 1mn 28s
    Overall bit rate : 5 957 Kbps
    Encoded date : UTC 2011-08-30 11:59:53
    Tagged date : UTC 2011-08-30 11:59:53
    gsst : 0
    gstd : 88360
    gssd : BDD78CFC4HH1314816531790304

    Video
    ID : 1
    Format : AVC
    Format/Info : Advanced Video Codec
    Format profile : [email protected]
    Format settings, CABAC : Yes
    Format settings, ReFrames : 1 frame
    Codec ID : avc1
    Codec ID/Info : Advanced Video Coding
    Duration : 1mn 28s
    Bit rate : 5 800 Kbps
    Maximum bit rate : 10.1 Mbps
    Width : 1920 pixels
    Height : 1080 pixels
    Display aspect ratio : 16:9
    Frame rate mode : Constant
    Frame rate : 25.000 fps
    Color space : YUV
    Chroma subsampling : 4:2:0
    Bit depth : 8 bits
    Scan type : Progressive
    Bits/(Pixel*Frame) : 0.112
    Stream size : 61.1 MiB (97%)
    Tagged date : UTC 2011-08-30 11:59:53

    Audio
    ID : 2
    Format : AAC
    Format/Info : Advanced Audio Codec
    Format profile : LC
    Codec ID : 40
    Duration : 1mn 28s
    Bit rate mode : Variable
    Bit rate : 152 Kbps
    Maximum bit rate : 192 Kbps
    Channel(s) : 2 channels
    Channel positions : Front: L R
    Sampling rate : 44.1 KHz
    Compression mode : Lossy
    Stream size : 1.60 MiB (3%)
    Encoded date : UTC 2011-08-30 11:59:53
    Tagged date : UTC 2011-08-30 11:59:53

    Ripper : Dj Tabby





    Code:
    http://www.filesonic.com/file/1822632021
    OR

    Code:
    http://muchshare.net/xj25seat6npo

  2. #2
    dR Dazzler www.desirulez.net
    Join Date
    Jul 2011
    Posts
    641

    T

    Default

    thx

 

 

Posting Permissions

  • You may not post new threads
  • You may not post replies
  • You may not post attachments
  • You may not edit your posts
  •