Results 1 to 1 of 1
  1. #1
    dR Contributor www.desirulez.net
    Join Date
    Jan 2011
    Posts
    2,299

    T

    Smile Spy Kids 4 - All the Time in the World (2011) - Hindi Dubbed - CAMRip - [TDT]

    Follow us on Social Media











    General
    Complete name : F:\EXDESI.COM\Spy Kids 4 All the Time in the World CamRip by imkhan -=[TDT]=-\Spy Kids 4 All the Time in the World CamRip by imkhan -=[TDT]=-.mkv
    Format : Matroska
    File size : 388 MiB
    Duration : 1h 21mn
    Overall bit rate : 663 Kbps
    Movie name : Spy Kids 4 All the Time in the World CamRip by imkhan -=[TDT]=-
    Encoded date : UTC 2011-08-29 16:44:30
    Writing application : mkvmerge v4.7.0 ('Just Like You Imagined') built on Apr 21 2011 01:13:14
    Writing library : libebml v1.2.0 + libmatroska v1.1.0

    Video
    ID : 1
    Format : AVC
    Format/Info : Advanced Video Codec
    Format settings, CABAC : Yes
    Format settings, ReFrames : 3 frames
    Codec ID : V_MPEG4/ISO/AVC
    Duration : 1h 21mn
    Bit rate : 522 Kbps
    Width : 720 pixels
    Height : 384 pixels
    Display aspect ratio : 1.875
    Frame rate : 25.000 fps
    Resolution : 24 bits
    Colorimetry : 4:2:0
    Scan type : Progressive
    Bits/(Pixel*Frame) : 0.076
    Stream size : 306 MiB (79%)
    Title : imkhan
    Language : Hindi

    Audio
    ID : 2
    Format : MPEG Audio
    Format version : Version 1
    Format profile : Layer 2
    Codec ID : A_MPEG/L2
    Codec ID/Hint : MP2
    Duration : 1h 21mn
    Bit rate mode : Constant
    Bit rate : 128 Kbps
    Channel(s) : 2 channels
    Sampling rate : 44.1 KHz
    Resolution : 16 bits
    Stream size : 74.9 MiB (19%)
    Title : imkhan
    Language : Hindi








    Credits to "imkhan @ TDT"



    Code:
    http://cramit.in/arv0t3ufaoe7
    OR

    Code:
    http://muchshare.net/q5gk8d1dlp4j


 

 

Posting Permissions

  • You may not post new threads
  • You may not post replies
  • You may not post attachments
  • You may not edit your posts
  •