Results 1 to 1 of 1
  1. #1
    Hot Member www.desirulez.net
    Join Date
    Mar 2009
    Posts
    561

    T

    Angry Aarakshan (2011)- 1CD-DVD-SCR-Rip-[TDT]

    Follow us on Social Media









    CLICK THE IMAGES TO VIEW ITS FULL SIZE







    Code:
    General
    Complete name                    : D:\MOVIES\HINDI\Aarakshan [2011] 1Cd Dvd-Scr_Rip By [~SAIF~] [~TDT~]\Aarakshan [2011] 1Cd Dvd-Scr_Rip By [~SAIF~] [~TDT~].avi
    Format                           : AVI
    Format/Info                      : Audio Video Interleave
    File size                        : 707 MiB
    Duration                         : 2h 38mn
    Overall bit rate                 : 622 Kbps
    Writing library                  : VirtualDub build 32842/release
    
    Video
    ID                               : 0
    Format                           : MPEG-4 Visual
    Format profile                   : Advanced [email protected]
    Format settings, BVOP            : 2
    Format settings, QPel            : No
    Format settings, GMC             : No warppoints
    Format settings, Matrix          : Default (H.263)
    Codec ID                         : XVID
    Codec ID/Hint                    : XviD
    Duration                         : 2h 38mn
    Bit rate                         : 517 Kbps
    Width                            : 624 pixels
    Height                           : 272 pixels
    Display aspect ratio             : 2.25:1
    Frame rate                       : 23.976 fps
    Color space                      : YUV
    Chroma subsampling               : 4:2:0
    Bit depth                        : 8 bits
    Scan type                        : Progressive
    Compression mode                 : Lossy
    Bits/(Pixel*Frame)               : 0.127
    Stream size                      : 587 MiB (83%)
    Writing library                  : XviD 1.2.1 (UTC 2008-12-04)
    
    Audio
    ID                               : 1
    Format                           : MPEG Audio
    Format version                   : Version 1
    Format profile                   : Layer 3
    Mode                             : Joint stereo
    Mode extension                   : MS Stereo
    Codec ID                         : 55
    Codec ID/Hint                    : MP3
    Duration                         : 2h 38mn
    Bit rate mode                    : Constant
    Bit rate                         : 96.0 Kbps
    Channel(s)                       : 2 channels
    Sampling rate                    : 32.0 KHz
    Compression mode                 : Lossy
    Stream size                      : 109 MiB (15%)
    Alignment                        : Split accross interleaves
    Interleave, duration             : 42 ms (1.00 video frame)
    Interleave, preload duration     : 500 ms
    Writing library                  : LAME3.98r
    Encoding settings                : -m j -V 4 -q 2 -lowpass 15.1 -b 96
    CREDIT TO TDT


    DOWNLOAD:

    Single Links

    Code:
    http://cramit.in/5srttspn9fg7
    
    Or
    
    http://www.wupload.com/file/128607967

    Plz Buy A Premium Account From My Link To Support My Upload






 

 

Posting Permissions

  • You may not post new threads
  • You may not post replies
  • You may not post attachments
  • You may not edit your posts
  •