Results 1 to 1 of 1
  1. #1
    dR Rockers www.desirulez.net
    Join Date
    Aug 2011
    Posts
    5,859

    T

    Default Mashaal (1984) - 1.45GB - 1/3 - DvDRiP - XviD - AC3 - 5.1 - [Team DUS]

    Follow us on Social Media







    Mashaal (1984) 1/3 DvD RiP XviD AC3 5.1 [Team DUS]




    Code:
    Code:
         Source                           : DvD 9 @ DDR Thanks.
    Ripper                           : I Proud To Be An Indian [Team DUS]
    General
    Complete name                    : D:\Download\Mashaal (1984) DvD RiP XviD AC3 5.1 [Team DUS]\Mashaal (1984) DvD RiP XviD AC3 5.1 [Team DUS].avi
    Format                           : AVI
    Format/Info                      : Audio Video Interleave
    File size                        : 1.45 GiB
    Duration                         : 2h 42mn
    Overall bit rate                 : 1 284 Kbps
    
    Video
    ID                               : 0
    Format                           : MPEG-4 Visual
    Format profile                   : Advanced [email protected]
    Format settings, BVOP            : 2
    Format settings, QPel            : Yes
    Format settings, GMC             : No warppoints
    Format settings, Matrix          : Default (H.263)
    Codec ID                         : XVID
    Codec ID/Hint                    : XviD
    Duration                         : 2h 42mn
    Bit rate                         : 827 Kbps
    Width                            : 656 pixels
    Height                           : 480 pixels
    Display aspect ratio             : 4:3
    Frame rate                       : 29.970 fps
    Color space                      : YUV
    Chroma subsampling               : 4:2:0
    Bit depth                        : 8 bits
    Scan type                        : Progressive
    Compression mode                 : Lossy
    Bits/(Pixel*Frame)               : 0.088
    Stream size                      : 959 MiB (64%)
    Writing library                  : XviD 1.2.1 (UTC 2008-12-04)
    
    Audio
    ID                               : 1
    Format                           : AC-3
    Format/Info                      : Audio Coding 3
    Mode extension                   : CM (complete main)
    Codec ID                         : 2000
    Duration                         : 2h 42mn
    Bit rate mode                    : Constant
    Bit rate                         : 448 Kbps
    Channel(s)                       : 6 channels
    Channel positions                : Front: L C R, Side: L R, LFE
    Sampling rate                    : 48.0 KHz
    Bit depth                        : 16 bits
    Compression mode                 : Lossy
    Stream size                      : 519 MiB (35%)
    Alignment                        : Aligned on interleaves
    Interleave, duration             : 64 ms (1.92 video frames)
    Interleave, preload duration     : 9856 ms
    Title                            : VTS_02_1 T80 3_2ch 448Kbps DELAY 9809ms

































    SINGLE LINK

    Code:
    http://www.fileserve.com/file/3EebtFn/Mashaal_(1984)_DvD_RiP_XviD_AC3_5.1_[Team_DUS].avi
    Code:
    http://www.filesonic.com/file/1780133314/Mashaal (1984) DvD RiP XviD AC3 5.1 [Team DUS].avi
    Code:
    http://www.wupload.com/file/126726480/Mashaal (1984) DvD RiP XviD AC3 5.1 [Team DUS].avi

    450MB LINKS


    Code:
    http://www.fileserve.com/file/fyHuNam/Mashaal_(1984)_DvD_RiP_XviD_AC3_5.1_[Team_DUS].avi.001
    http://www.fileserve.com/file/jz3y5EX/Mashaal_(1984)_DvD_RiP_XviD_AC3_5.1_[Team_DUS].avi.002
    http://www.fileserve.com/file/5MtAXA3/Mashaal_(1984)_DvD_RiP_XviD_AC3_5.1_[Team_DUS].avi.003
    http://www.fileserve.com/file/gxzxbtA/Mashaal_(1984)_DvD_RiP_XviD_AC3_5.1_[Team_DUS].avi.004
    
    
    http://www.filesonic.com/file/1780094924/Mashaal (1984) DvD RiP XviD AC3 5.1 [Team DUS].avi.001
    http://www.filesonic.com/file/1780095084/Mashaal (1984) DvD RiP XviD AC3 5.1 [Team DUS].avi.002
    http://www.filesonic.com/file/1780094954/Mashaal (1984) DvD RiP XviD AC3 5.1 [Team DUS].avi.003
    http://www.filesonic.com/file/1780033994/Mashaal (1984) DvD RiP XviD AC3 5.1 [Team DUS].avi.004
    
    
    http://www.wupload.com/file/126712003/Mashaal (1984) DvD RiP XviD AC3 5.1 [Team DUS].avi.001
    http://www.wupload.com/file/126712322/Mashaal (1984) DvD RiP XviD AC3 5.1 [Team DUS].avi.002
    http://www.wupload.com/file/126712321/Mashaal (1984) DvD RiP XviD AC3 5.1 [Team DUS].avi.003
    http://www.wupload.com/file/126669438/Mashaal (1984) DvD RiP XviD AC3 5.1 [Team DUS].avi.004

 

 

Posting Permissions

  • You may not post new threads
  • You may not post replies
  • You may not post attachments
  • You may not edit your posts
  •