Results 1 to 2 of 2
  1. #1
    dR Rockers www.desirulez.net
    Join Date
    Aug 2011
    Posts
    5,859

    T

    Default Karzzzz (2008) - 1.43GB - 1/3 - DvDRiP - XviD - 5.1 - AC3 -[Team DUS]

    Follow us on Social Media







    Karzzzz (2008) 1/3 DvD RiP XviD 5.1 AC3 [DUSTorrents] [Team DUS]




    Code:
    Code:
         Source                           : DvD 9 @ DRs Thanks.
    Ripper                           : I Proud To Be An Indian [Team DUS]
    General
    Complete name                    : D:\Download\Karzzzz (2008) DvD RiP XviD 5.1 AC3 [DUSTorrents] [Team DUS]\Karzzzz (2008) DvD RiP XviD 5.1 AC3 [DUSTorrents] [Team DUS].avi
    Format                           : AVI
    Format/Info                      : Audio Video Interleave
    Format profile                   : OpenDML
    Format settings                  : rec
    File size                        : 1.43 GiB
    Duration                         : 2h 16mn
    Overall bit rate                 : 1 501 Kbps
    Writing application              : AVI-Mux GUI 1.17.8.3, Feb 16 201019:42:50
    
    Video
    ID                               : 0
    Format                           : MPEG-4 Visual
    Format profile                   : Advanced [email protected]
    Format settings, BVOP            : 2
    Format settings, QPel            : No
    Format settings, GMC             : No warppoints
    Format settings, Matrix          : Default (H.263)
    Codec ID                         : XVID
    Codec ID/Hint                    : XviD
    Duration                         : 2h 16mn
    Bit rate                         : 1 111 Kbps
    Width                            : 720 pixels
    Height                           : 304 pixels
    Display aspect ratio             : 2.35:1
    Frame rate                       : 29.970 fps
    Color space                      : YUV
    Chroma subsampling               : 4:2:0
    Bit depth                        : 8 bits
    Scan type                        : Progressive
    Compression mode                 : Lossy
    Bits/(Pixel*Frame)               : 0.169
    Stream size                      : 1.06 GiB (74%)
    Writing library                  : XviD 1.2.1 (UTC 2008-12-04)
    
    Audio
    ID                               : 1
    Format                           : AC-3
    Format/Info                      : Audio Coding 3
    Mode extension                   : CM (complete main)
    Codec ID                         : 2000
    Duration                         : 2h 16mn
    Bit rate mode                    : Constant
    Bit rate                         : 384 Kbps
    Channel(s)                       : 6 channels
    Channel positions                : Front: L C R, Side: L R, LFE
    Sampling rate                    : 48.0 KHz
    Bit depth                        : 16 bits
    Compression mode                 : Lossy
    Stream size                      : 375 MiB (26%)
    Alignment                        : Aligned on interleaves
    Interleave, duration             : 64 ms (1.92 video frames)
    Interleave, preload duration     : 192 ms
    Title                            : karzz T81 3_2ch 384Kbps DELAY 0ms
















    Sample Included In Torrent. Enjoy.


    SINGLE LINKS

    Code:
    http://www.fileserve.com/file/gMx8Dtt/Karzzzz_(2008)_DvD_RiP_XviD_5.1_AC3_[DUSTorrents]_[Team_DUS].avi
    Code:
    http://www.filesonic.com/file/1780595111/Karzzzz (2008) DvD RiP XviD 5.1 AC3 [DUSTorrents] [Team DUS].avi
    Code:
    http://www.wupload.com/file/126699299/Karzzzz (2008) DvD RiP XviD 5.1 AC3 [DUSTorrents] [Team DUS].avi

    450MB LINKS


    Code:
    http://www.fileserve.com/file/3bDZFzg/Karzzzz_(2008)_DvD_RiP_XviD_5.1_AC3_[DUSTorrents]_[Team_DUS].avi.001
    http://www.fileserve.com/file/ecMusdj/Karzzzz_(2008)_DvD_RiP_XviD_5.1_AC3_[DUSTorrents]_[Team_DUS].avi.002
    http://www.fileserve.com/file/4uadY59/Karzzzz_(2008)_DvD_RiP_XviD_5.1_AC3_[DUSTorrents]_[Team_DUS].avi.003
    http://www.fileserve.com/file/d35XvDp/Karzzzz_(2008)_DvD_RiP_XviD_5.1_AC3_[DUSTorrents]_[Team_DUS].avi.004
    
    
    http://www.filesonic.com/file/1779918901/Karzzzz (2008) DvD RiP XviD 5.1 AC3 [DUSTorrents] [Team DUS].avi.001
    http://www.filesonic.com/file/1779939364/Karzzzz (2008) DvD RiP XviD 5.1 AC3 [DUSTorrents] [Team DUS].avi.002
    http://www.filesonic.com/file/1779939404/Karzzzz (2008) DvD RiP XviD 5.1 AC3 [DUSTorrents] [Team DUS].avi.003
    http://www.filesonic.com/file/1780033984/Karzzzz (2008) DvD RiP XviD 5.1 AC3 [DUSTorrents] [Team DUS].avi.004
    
    
    http://www.wupload.com/file/126678121/Karzzzz (2008) DvD RiP XviD 5.1 AC3 [DUSTorrents] [Team DUS].avi.001
    http://www.wupload.com/file/126678123/Karzzzz (2008) DvD RiP XviD 5.1 AC3 [DUSTorrents] [Team DUS].avi.002
    http://www.wupload.com/file/126678130/Karzzzz (2008) DvD RiP XviD 5.1 AC3 [DUSTorrents] [Team DUS].avi.003
    http://www.wupload.com/file/126653952/Karzzzz (2008) DvD RiP XviD 5.1 AC3 [DUSTorrents] [Team DUS].avi.004

  2. #2
    Hot Member www.desirulez.net
    Join Date
    Feb 2011
    Posts
    5,056

    T

    Default

    wow man was waiting for this one!!! Thankss alot for the single link



 

 

Posting Permissions

  • You may not post new threads
  • You may not post replies
  • You may not post attachments
  • You may not edit your posts
  •