Results 1 to 1 of 1
  1. #1
    Hot Member www.desirulez.net
    Join Date
    Mar 2009
    Posts
    561

    T

    Angry Chatur Singh 2 Star (2011)- 1CD-DVD-SCR-Rip-AC3-[TDT]

    Follow us on Social Media









    CLICK THE IMAGES TO VIEW ITS FULL SIZE







    Code:
    General
     Complete name : Chatur Singh 2 Star (2011) - Xvid - 1CD - McScr-Rip - AC3 -[TDT].avi
     IMDB : Chatur Singh Two Star (2011) - IMDb
     Format : AVI
     Format/Info : Audio Video Interleave
     File size : 699 MiB
     Duration : 1h 51mn
     Overall bit rate : 878 Kbps
     Writing application : VirtualDubMod 1.5.10.3 | VirtualDub-Fr.org || (build 2550/release)
     Writing library : VirtualDubMod build 2550/release
    Source : Mc-Screener @ Team ICTV .. Thnx A LOT 
    Ripper : KINGFISHER [~TDT~].
    
    Video
     ID : 0
     Format : MPEG-4 Visual
     Format profile : Advanced [email protected]
     Format settings, BVOP : 1
     Format settings, QPel : No
     Format settings, GMC : No warppoints
     Format settings, Matrix : Default (H.263)
     Muxing mode : Packed bitstream
     Codec ID : XVID
     Codec ID/Hint : XviD
     Duration : 1h 51mn
     Bit rate : 741 Kbps
     Width : 640 pixels
     Height : 288 pixels
     Display aspect ratio : 2.222
     Frame rate : 23.976 fps
     Color space : YUV
     Chroma subsampling : 4:2:0
     Bit depth : 8 bits
     Scan type : Progressive
     Compression mode : Lossy
     Bits/(Pixel*Frame) : 0.168
     Stream size : 590 MiB (84%)
     Writing library : XviD 1.2.1 (UTC 2008-12-04)
    
     Audio
     ID : 1
     Format : AC-3
     Format/Info : Audio Coding 3
     Mode extension : CM (complete main)
     Codec ID : 2000
     Duration : 1h 51mn
     Bit rate mode : Constant
     Bit rate : 128 Kbps
     Channel(s) : 2 channels
     Channel positions : Front: L R
     Sampling rate : 48.0 KHz
     Bit depth : 16 bits
     Compression mode : Lossy
     Stream size : 102 MiB (15%)
     Alignment : Aligned on interleaves
     Interleave, duration : 42 ms (1.00 video frame)
     Interleave, preload duration : 512 ms
    CREDIT TO TDBB


    DOWNLOAD:

    Single Links

    Code:
    http://cramit.in/i6ol9udxezko
    
    Or
    
    http://www.wupload.com/file/125474698

    Plz Buy A Premium Account From My Link To Support My Upload






 

 

Posting Permissions

  • You may not post new threads
  • You may not post replies
  • You may not post attachments
  • You may not edit your posts
  •