Results 1 to 2 of 2
  1. #1
    dR Contributor www.desirulez.net
    Join Date
    Jan 2011
    Posts
    2,299

    T

    Smile Murder (2004) - DVD9 Untouched - NTSC - Music Videos

    Follow us on Social Media







    Source: DVD9 NTSC [ ( DDR )Thanks ]
    DISTRIBUTOR: SHEMAROO
    SIZE: 873 MB
    Murder (2004) - IMDb

    Cast Credited cast:
    Mallika Sherawat ... Simran Saigal
    Ashmit Patel ... Sudhir Saigal
    Emraan Hashmi ... Sunny
    Kashmira Shah ... Guest appearance (lounge singer)
    Rajendranath Zutshi ... Inspector Rajvir Singh


    TECHNICAL INFO:

    Format : MPEG-PS
    File size : 174 MiB
    Duration : 4mn 8s
    Overall bit rate : 5 891 Kbps

    Video
    ID : 224 (0xE0)
    Format : MPEG Video
    Format version : Version 2
    Format profile : [email protected]
    Format settings, BVOP : No
    Format settings, Matrix : Default
    Format settings, GOP : M=1, N=16
    Duration : 4mn 8s
    Bit rate mode : Constant
    Bit rate : 5 000 Kbps
    Width : 704 pixels
    Height : 480 pixels
    Display aspect ratio : 16:9
    Frame rate : 29.970 fps
    Standard : NTSC
    Color space : YUV
    Chroma subsampling : 4:2:0
    Bit depth : 8 bits
    Scan type : Interlaced
    Scan order : Top Field First
    Compression mode : Lossy
    Bits/(Pixel*Frame) : 0.494
    Stream size : 148 MiB (85%)

    Audio #1
    ID : 189 (0xBD)-128 (0x80)
    Format : AC-3
    Format/Info : Audio Coding 3
    Mode extension : CM (complete main)
    Muxing mode : DVD-Video
    Duration : 4mn 8s
    Bit rate mode : Constant
    Bit rate : 384 Kbps
    Channel(s) : 6 channels
    Channel positions : Front: L C R, Side: L R, LFE
    Sampling rate : 48.0 KHz
    Bit depth : 16 bits
    Compression mode : Lossy
    Delay relative to video : -209ms
    Stream size : 11.4 MiB (7%)

    Audio #2
    ID : 189 (0xBD)-129 (0x81)
    Format : AC-3
    Format/Info : Audio Coding 3
    Mode extension : CM (complete main)
    Muxing mode : DVD-Video
    Duration : 4mn 8s
    Bit rate mode : Constant
    Bit rate : 384 Kbps
    Channel(s) : 2 channels
    Channel positions : Front: L R
    Sampling rate : 48.0 KHz
    Bit depth : 16 bits
    Compression mode : Lossy
    Delay relative to video : -209ms
    Stream size : 11.4 MiB (7%)


    Tracklist

    01-Kaho Na Kaho-Murder 2004 -Music Videos-DVD9 Untouched NTSC-Ibraram
    02Bheegey Hont -Murder 2004 -Music Videos-DVD9 Untouched NTSC-Ibraram
    03-Dil Ko Hazaar Baar -Murder 2004 -Music Videos-DVD9 Untouched NTSC-Ibraram
    04-Zindagi Is Tarah -Murder 2004 -Music Videos-DVD9 Untouched NTSC-Ibraram
    05-Bonus video - Love making Theme -Murder 2004 -Music Videos-DVD9 Untouched NTSC-Ibraram








    Code:
    http://cramit.in/srp5mm84bj3d
    http://cramit.in/87v6ggr83us0
    http://cramit.in/hao1x952vcih
    http://cramit.in/jlncfm4fiwer
    http://cramit.in/kb2cqafzif57

  2. #2

 

 

Posting Permissions

  • You may not post new threads
  • You may not post replies
  • You may not post attachments
  • You may not edit your posts
  •