Results 1 to 1 of 1
  1. #1
    Hot Member www.desirulez.net
    Join Date
    Jun 2011
    Posts
    621

    T

    Default Engeyum Kaadhal (2011) Tamil 3D View HD DvD Rip XviD

    Follow us on Social Media








    Engeyum Kaadhal (2011) Tamil 3D View HD DvD Rip XviD


    Code:
    Format : AVI Format/Info : Audio Video Interleave File size : 752 MiB Duration : 2h 5mn Overall bit rate : 838 Kbps Video ID : 0 Format : MPEG-4 Visual Format profile : Advanced [email protected] Format settings, BVOP : 2 Format settings, QPel : No Format settings, GMC : No warppoints Format settings, Matrix : Default (H.263) Muxing mode : Packed bitstream Codec ID : XVID Codec ID/Hint : XviD Duration : 2h 5mn Bit rate : 635 Kbps Width : 608 pixels Height : 252 pixels Display aspect ratio : 2.40:1 Frame rate : 30.000 fps Color space : YUV Chroma subsampling : 4:2:0 Bit depth : 8 bits Scan type : Progressive Bits/(Pixel*Frame) : 0.138 Stream size : 569 MiB (76%) Writing library : XviD 64 Audio ID : 1 Format : AC-3 Format/Info : Audio Coding 3 Mode extension : CM (complete main) Codec ID : 2000 Duration : 2h 5mn Bit rate mode : Constant Bit rate : 192 Kbps Channel(s) : 2 channels Channel positions : Front: L R Sampling rate : 48.0 KHz Bit depth : 16 bits Compression mode : Lossy Stream size : 172 MiB (23%) Alignment : Aligned on interleaves Interleave, duration : 32 ms (0.96 video frame) Interleave, preload duration : 512 ms










    Code:
    http://pyramidfiles.com/12igm5w65o3b/Engeyum_Kaadhal__2011__Tamil_3D_View_HD_DvD_Rip_XviD.html






 

 

Posting Permissions

  • You may not post new threads
  • You may not post replies
  • You may not post attachments
  • You may not edit your posts
  •