Results 1 to 1 of 1
  1. #1

    Arrow Engeyum Kaadhal (2011) Tamil 3D View HD DvD Rip XviD [TMT]

    Follow us on Social Media







    Code:
    Format                           : AVI
    Format/Info                      : Audio Video Interleave
    File size                        : 752 MiB
    Duration                         : 2h 5mn
    Overall bit rate                 : 838 Kbps
    
    Video
    ID                               : 0
    Format                           : MPEG-4 Visual
    Format profile                   : Advanced [email protected]
    Format settings, BVOP            : 2
    Format settings, QPel            : No
    Format settings, GMC             : No warppoints
    Format settings, Matrix          : Default (H.263)
    Muxing mode                      : Packed bitstream
    Codec ID                         : XVID
    Codec ID/Hint                    : XviD
    Duration                         : 2h 5mn
    Bit rate                         : 635 Kbps
    Width                            : 608 pixels
    Height                           : 252 pixels
    Display aspect ratio             : 2.40:1
    Frame rate                       : 30.000 fps
    Color space                      : YUV
    Chroma subsampling               : 4:2:0
    Bit depth                        : 8 bits
    Scan type                        : Progressive
    Compression mode                 : Lossy
    Bits/(Pixel*Frame)               : 0.138
    Stream size                      : 569 MiB (76%)
    Writing library                  : XviD 64
    
    Audio
    ID                               : 1
    Format                           : AC-3
    Format/Info                      : Audio Coding 3
    Mode extension                   : CM (complete main)
    Codec ID                         : 2000
    Duration                         : 2h 5mn
    Bit rate mode                    : Constant
    Bit rate                         : 192 Kbps
    Channel(s)                       : 2 channels
    Channel positions                : Front: L R
    Sampling rate                    : 48.0 KHz
    Bit depth                        : 16 bits
    Compression mode                 : Lossy
    Stream size                      : 172 MiB (23%)
    Alignment                        : Aligned on interleaves
    Interleave, duration             : 32 ms (0.96 video frame)
    Interleave, preload duration     : 512 ms







    Credits To Shammu4Real @ TMT [ Special Thnx]
    Uploader :: Team SD

    Filefactory Split Links:

    Code:
    http://www.filefactory.com/file/cd16fea/n/Engym.Kdhl(2011).1CD.3D.Rip.By.Team.SD.avi.001
    http://www.filefactory.com/file/cd16fbd/n/Engym.Kdhl(2011).1CD.3D.Rip.By.Team.SD.avi.002
    http://www.filefactory.com/file/cd16e87/n/Engym.Kdhl(2011).1CD.3D.Rip.By.Team.SD.avi.003
    http://www.filefactory.com/file/cd16fcb/n/Engym.Kdhl(2011).1CD.3D.Rip.By.Team.SD.avi.004
    Wupload Split Links:

    Code:
    http://www.wupload.com/file/112471944
    http://www.wupload.com/file/112471949
    http://www.wupload.com/file/112471950
    http://www.wupload.com/file/112471545
    Filesonic Split Links:

    Code:
    http://www.filesonic.com/file/1718366111/Engym.Kdhl(2011).1CD.3D.Rip.By.Team.SD.avi.001
    http://www.filesonic.com/file/1718369701/Engym.Kdhl(2011).1CD.3D.Rip.By.Team.SD.avi.002
    http://www.filesonic.com/file/1718371601/Engym.Kdhl(2011).1CD.3D.Rip.By.Team.SD.avi.003
    http://www.filesonic.com/file/1718377601/Engym.Kdhl(2011).1CD.3D.Rip.By.Team.SD.avi.004
    All Links Are Interchangeable Join Them Using HJ Split

    Single Links::
    Fileserve Link:

    Code:
    http://www.fileserve.com/file/VKC3fxp
    FileFactory Link:

    Code:
    http://www.filefactory.com/file/cd16064/n/Engym.Kdhl(2011).1CD.3D.Rip.By.Team.SD.avi
    WUpload Link:

    Code:
    http://www.wupload.com/file/112471528


    Note : The Particular Content Is Not My Own Content, Got From the Vast Internet...I Am Just Sharing It Here...If Any Prob It Will Be Removed Immediately !


 

 

Posting Permissions

  • You may not post new threads
  • You may not post replies
  • You may not post attachments
  • You may not edit your posts
  •