Results 1 to 1 of 1
  1. #1
    Senior Member www.desirulez.net
    Join Date
    Jul 2011
    Posts
    104

    T

    Default Rambo First Blood II (1985) - 720p - BRRip - x264 - Dual Audio - Eng-Hindi AF

    Follow us on Social Media







    Rambo First Blood II (1985) - 720p - BRRip - x264 - Dual Audio - Eng-Hindi AmazeForum






    Code:
    http://www.imdb.com/title/tt0089880/
    Action | Adventure | Thriller
    Hindi | English
    Code:
    John Rambo is removed from prison by his former superior, Colonel Samuel Troutman, for a top-secret operation to bring back POW's still held in Vietnam. Rambo's assignment is to only take pictures of where the POWs are being held, but Rambo wants to get the POWs out of Vietnam. Teamed up with female Vietnamese freedom fighter Co Bao, Rambo embarks on a mission to rescue the POWs, who are being held by sadistic Vietnamese Captain Vinh and his Russian comrade, Lieutenant Colonel Padovsky. Rambo starts killing every enemy in sight while still focusing on his intentions to rescue the POWs. There are also corrupt American officials involved in the mission, including Marshall Murdock, one of Rambo's superiors
    Sylvester Stallone ... Rambo
    Richard Crenna ... Trautman
    Charles Napier ... Murdock
    Steven Berkoff ... Podovsky
    Julia Nickson ... Co
    Martin Kove ... Ericson
    George Cheung ... Tay (as George Kee Cheung)
    Andy Wood ... Banks

    Rambo First Blood II (1985) - 720p - BRRip - Dual Audio - Eng-Hindi
    Director: George P. Cosmatos
    Writers: David Morrell
    Kevin Jarre (story)
    Stars: Sylvester Stallone, Richard Crenna and Charles Napier
    Language :[Eng-Hindi]
    9 September 1985 (Spain)
    Run Time :1H:36M
    Color :Color
    Code:
    Video
    ID                               : 1
    Format                           : AVC
    Format/Info                      : Advanced Video Codec
    Format profile                   : [email protected]
    Format settings, CABAC           : Yes
    Format settings, ReFrames        : 4 frames
    Codec ID                         : V_MPEG4/ISO/AVC
    Duration                         : 1h 31mn
    Bit rate                         : 1 904 Kbps
    Width                            : 1 280 pixels
    Height                           : 544 pixels
    Display aspect ratio             : 2.35:1
    Frame rate                       : 25.000 fps
    Original frame rate              : 23.976 fps
    Color space                      : YUV
    Chroma subsampling               : 4:2:0
    Bit depth                        : 8 bits
    Scan type                        : Progressive
    Bits/(Pixel*Frame)               : 0.109
    Stream size                      : 1.23 GiB (70%)
    Title                            : RIPPER~BONIIN
    Writing library                  : x264 core 67 r1145bm d2e1e1c
    Encoding settings                : cabac=1 / ref=4 / deblock=1:-3:0 / analyse=0x3:0x133 / me=umh / subme=7 / psy_rd=0.0:0.0 / mixed_ref=1 / me_range=32 / chroma_me=1 / trellis=2 / 8x8dct=1 / cqm=2 / deadzone=21,11 / chroma_qp_offset=0 / threads=2 / thread_queue=2 / nr=0 / decimate=1 / mbaff=0 / bframes=3 / b_pyramid=1 / b_adapt=2 / b_bias=0 / direct=3 / wpredb=1 / keyint=250 / keyint_min=25 / scenecut=40 / rc=2pass / bitrate=1904 / ratetol=1.0 / qcomp=0.60 / qpmin=10 / qpmax=51 / qpstep=4 / cplxblur=20.0 / qblur=0.5 / ip_ratio=1.40 / pb_ratio=1.30 / aq=1:1.00
    
    Audio #1
    ID                               : 3
    Format                           : AC-3
    Format/Info                      : Audio Coding 3
    Mode extension                   : CM (complete main)
    Codec ID                         : A_AC3
    Duration                         : 1h 31mn
    Bit rate mode                    : Constant
    Bit rate                         : 320 Kbps
    Channel(s)                       : 6 channels
    Channel positions                : Front: L C R, Side: L R, LFE
    Sampling rate                    : 48.0 KHz
    Bit depth                        : 16 bits
    Compression mode                 : Lossy
    Delay relative to video          : 28ms
    Stream size                      : 211 MiB (12%)
    Title                            : RIPPER~BONIIN
    Language                         : English
    
    Audio #2
    ID                               : 4
    Format                           : AC-3
    Format/Info                      : Audio Coding 3
    Mode extension                   : CM (complete main)
    Codec ID                         : A_AC3
    Duration                         : 1h 31mn
    Bit rate mode                    : Constant
    Bit rate                         : 448 Kbps
    Channel(s)                       : 6 channels
    Channel positions                : Front: L C R, Side: L R, LFE
    Sampling rate                    : 48.0 KHz
    Bit depth                        : 16 bits
    Compression mode                 : Lossy
    Delay relative to video          : 20s 232ms
    Stream size                      : 295 MiB (16%)
    Title                            : RIPPER~BONIIN
    Language                         : Hindi
    
    Text
    ID                               : 2
    Format                           : UTF-8
    Codec ID                         : S_TEXT/UTF8
    Codec ID/Info                    : UTF-8 Plain Text
    Title                            : RIPPER~BONIIN
    Language                         : English









    Code:
    http://www.fileserve.com/file/bwE8unV/Rambo.First.Blood.II.1985.720p.BRRip.x264.Dual.Audio.Eng-Hindi.mkv
    
    http://www.filesonic.com/file/1397474994/Rambo.First.Blood.II.1985.720p.BRRip.x264.Dual.Audio.Eng-Hindi.mkv
    
    http://www.uploadstation.com/file/2EYzcPB/Rambo.First.Blood.II.1985.720p.BRRip.x264.Dual.Audio.Eng-Hindi.mkv
    
    http://www.wupload.com/file/46078254/Rambo.First.Blood.II.1985.720p.BRRip.x264.Dual.Audio.Eng-Hindi.mkv

 

 

Posting Permissions

  • You may not post new threads
  • You may not post replies
  • You may not post attachments
  • You may not edit your posts
  •